img image001 image001 image001 image001 image001 image001 image001 image001 image001 image001 image001 image001 image001 image001 image001

Planets Sun Sun Sun
Статистика раздачи
Автор: Nickolas3434 | Размер: 15.3 ГБ | Добавлен: 08 окт 2015
Раздают: 167    Качают: 22
Скачать торрент
Скачать торрент
Описание торрента

СообщениеДобавлено: 08 окт 2015 



Информация о фильме
Название: Трудно быть богом
Год выхода: 2013
Жанр: фантастика, драма
Режиссер: Алексей Герман
В ролях: Леонид Ярмольник, Юрий Цурило, Наталья Мотева, Александр Чутко, Евгений Герчаков, Валентин Голубенко, Пётр Меркурьев, Олег Ботин, Константин Быков, Юрий Думчев

О фильме:
На планете, погружённой в глухое Средневековье, работают наблюдатели-земляне, которые пытаются бережно подправлять ход событий, не нарушая логическое развитие истории. Главный герой, дон Румата Эсторский, осознавая свою задачу сохранения нейтралитета, тем не менее, не выдерживает, когда в Арканаре (одном из городов планеты) захватывает власть «чёрное братство», свергнувшее господство «серых», столь же отвратительных, но не столь кровавых. Румата берётся за меч, чтобы покарать злодеев, и тем самым нарушает все правила и закономерности, вмешиваясь в чужой исторический процесс.


Страна: Россия
Продолжительность: 02:57:35
Перевод: не требуется

Файл
Кодек: H.264
Качество: BDRip
Видео: 1808x1080, 23,976 fps, 10.8 Mbps
Звук: DTS, 6ch, 1 509 Kbps
Субтитры: английские
Доп. инфо: рип с американского трансфера


D:SemDesktopHard.to.Be.a.God.2013.1080p.BluRay.x264-NODLABS[rarbg]hard.to.be.a.god.2013.1080p.bluray.x264-nodlabs.mkv
General
Complete name : D:SemDesktopHard.to.Be.a.God.2013.1080p.BluRay.x264-NODLABS[rarbg]hard.to.be.a.god.2013.1080p.bluray.x264-nodlabs.mkv
Format : Matroska
Format version : Version 2
File size : 15.3 GiB
Duration : 2h 57mn
Overall bit rate : 12.3 Mbps
Writing application : mkvmerge v6.6.0 ('The Edge Of The In Between') built on Dec 1 2013 17:55:00
Writing library : libebml v1.3.0 + libmatroska v1.4.1
Video #1
ID : 1
Format : AVC
Format/Info : Advanced Video Codec
Format profile : High@L4.1
Format settings, CABAC : Yes
Format settings, ReFrames : 4 frames
Codec ID : V_MPEG4/ISO/AVC
Duration : 2h 57mn
Bit rate : 10.8 Mbps
Width : 1 808 pixels
Height : 1 080 pixels
Display aspect ratio : 1.674
Frame rate : 23.976 fps
Color space : YUV
Chroma subsampling : 4:2:0
Bit depth : 8 bits
Scan type : Progressive
Bits/(Pixel*Frame) : 0.231
Stream size : 13.1 GiB (86%)
Writing library : x264 core 146 r2538 121396c
Encoding settings : cabac=1 / ref=4 / deblock=1:-3:-3 / analyse=0x3:0x113 / me=umh / subme=8 / psy=1 / psy_rd=1.00:0.00 / mixed_ref=1 / me_range=16 / chroma_me=1 / trellis=1 / 8x8dct=1 / cqm=0 / deadzone=21,11 / fast_pskip=1 / chroma_qp_offset=-2 / threads=24 / lookahead_threads=4 / sliced_threads=0 / nr=0 / decimate=1 / interlaced=0 / bluray_compat=0 / constrained_intra=0 / bframes=3 / b_pyramid=2 / b_adapt=2 / b_bias=0 / direct=3 / weightb=1 / open_gop=0 / weightp=2 / keyint=240 / keyint_min=24 / scenecut=40 / intra_refresh=0 / rc_lookahead=50 / rc=2pass / mbtree=1 / bitrate=10825 / ratetol=1.0 / qcomp=0.60 / qpmin=0 / qpmax=69 / qpstep=4 / cplxblur=20.0 / qblur=0.5 / ip_ratio=1.40 / aq=1:1.00
Language : English
Default : Yes
Forced : No
Audio #2
ID : 2
Format : DTS
Format/Info : Digital Theater Systems
Codec ID : A_DTS
Duration : 2h 57mn
Bit rate mode : Constant
Bit rate : 1 510 Kbps
Channel(s) : 6 channels
Channel positions : Front: L C R, Side: L R, LFE
Sampling rate : 48.0 KHz
Bit depth : 24 bits
Compression mode : Lossy
Stream size : 1.87 GiB (12%)
Language : Russian
Default : Yes
Forced : No
Text #3
ID : 3
Format : UTF-8
Codec ID : S_TEXT/UTF8
Codec ID/Info : UTF-8 Plain Text
Language : English
Default : Yes
Forced : Yes



   Похожие торренты   Торрент   Размер 
В этой теме нет новых непрочитанных сообщений. Трудно быть Богом (2013) BDRip от -=HD-NET=- | Лицензия

164 | 9

2.74 ГБ

В этой теме нет новых непрочитанных сообщений. Трудно быть Богом (2013) BDRip 720p

653 | 65

6.27 ГБ

В этой теме нет новых непрочитанных сообщений. Трудно быть Богом (2013) BDRip-AVC от ExKinoRay

99 | 4

4.89 ГБ

В этой теме нет новых непрочитанных сообщений. Трудно быть Богом (2013) BDRip-AVC | iPad

73 | 11

5.12 ГБ

В этой теме нет новых непрочитанных сообщений. Трудно быть Богом (2013) BDRip-AVC от HELLYWOOD | Лицензия

275 | 10

4.37 ГБ

В этой теме нет новых непрочитанных сообщений. Трудно быть Богом (2013) BDRip от HQCLUB | Лицензия

962 | 33

2.91 ГБ

В этой теме нет новых непрочитанных сообщений. Трудно быть Богом (2013) WEB-DLRip-AVC от New-Team

191 | 12

2.91 ГБ




Вы не можете начинать темы
Вы не можете отвечать на сообщения
Вы не можете редактировать свои сообщения
Вы не можете удалять свои сообщения
Вы не можете добавлять вложения

Перейти:  
Для Мосгорсуда, Роскомнадзора и рекламодателей: mosgorsud-torrent[собачка]yandex.ru
 Вход
ppkBB3cker v.2 © 2008-2014 @ PPK
[ Time : 0.028s | 18 Queries | GZIP : Off ]

cron