img image001 image001 image001 image001 image001 image001 image001 image001 image001 image001 image001 image001 image001 image001 image001

Planets Sun Sun Sun
Статистика раздачи
Автор: Nickolas3434 | Размер: 745.43 МБ | Добавлен: 12 окт 2015
Раздают: 21    Качают: 3
Скачать торрент
Скачать торрент
Описание торрента

СообщениеДобавлено: 12 окт 2015 

Страна: СССР
Производство: Беларусьфильм, Узбекфильм

Жанр: военный
Год выпуска: 1980
Продолжительность: 01:13:59

Перевод: Не требуется
Cубтитры: нет
Оригинальная аудиодорожка: русский

Режиссер: Эдуард Хачатуров

В ролях:
Назим Туляходжаев, Марина Левтова, Альгирдас Паулавичюс, Геннадий Фролов, Владимир Марков, Михаил Глузский, Вера Кузнецова, Иван Рыжов, Дагун Омаев, Нина Розанцева, Геннадий Нилов...
Полный список актёров

Описание:
Великая Отечественная война... Одна из ее бесчисленных трудных дорог привела молодого солдата-узбека Рахима Замонбекова в отряд белорусских партизан. А до этого — тяжелый бой артиллерийского полка с превосходящими силами противника геройская гибель товарищей, трудный путь по вражеским тылам. От, казалось бы, неминуемой смерти спасает Рахима ценой собственной жизни старый крестьянин-белорус. В этих испытаниях мужает сердце молодого воина, одного из защитников Родины.





Источник: DVB
Качество видео: SATRip
Формат видео: AVI

Видео: 704x336 (2,095:1), 25 fps, XviD ~ 1207 kbps avg, 0.204 bit/pixel
Аудио: 48 kHz, Dolby Digital AC3 2.0, 192 kbps

Раздача от:
Общее
Полное имя : Kazhdyy.tretiy.1980.SATRip_[New-team]_by_AVP_Studio.avi
Формат : AVI
Формат/Информация : Audio Video Interleave
Размер файла : 745 Мбайт
Продолжительность : 1 ч. 13 м.
Общий поток : 1409 Кбит/сек
Программа кодирования : VirtualDubMod 1.5.10.3 | www.virtualdub-fr.org || (build 2550/release)
Библиотека кодирования : VirtualDubMod build 2550/release

Видео
Идентификатор : 0
Формат : MPEG-4 Visual
Профиль формата : Advanced Simple@L5
Параметр BVOP формата : 1
Параметр QPel формата : Нет
Параметр GMC формата : Без точки перехода
Параметр матрицы формата : Выборочная
Идентификатор кодека : XVID
Идентификатор кодека/Подсказка : XviD
Продолжительность : 1 ч. 13 м.
Битрейт : 1207 Кбит/сек
Ширина : 704 пикселя
Высота : 336 пикселей
Соотношение сторон : 2,095
Частота кадров : 25,000 кадров/сек
Цветовое пространство : YUV
Субдискретизация насыщенности : 4:2:0
Битовая глубина : 8 бит
Тип развёртки : Прогрессивная
Метод сжатия : С потерями
Бит/(Пиксели*Кадры) : 0.204
Размер потока : 639 Мбайт (86%)
Библиотека кодирования : XviD 73

Аудио
Идентификатор : 1
Формат : AC-3
Формат/Информация : Audio Coding 3
Расширение режима : CM (complete main)
Параметр Endianness формата : Big
Идентификатор кодека : 2000
Продолжительность : 1 ч. 13 м.
Вид битрейта : Постоянный
Битрейт : 192 Кбит/сек
Каналы : 2 канала
Расположение каналов : Front: L R
Частота : 48,0 КГц
Метод сжатия : С потерями
Размер потока : 102 Мбайт (14%)
Выравнивание : Разделение по промежуткам
Продолжительность промежутка : 40 мс. (1,00 видеокадр)
Время предзагрузки промежутка : 500 мс





   Похожие торренты   Торрент   Размер 
В этой теме нет новых непрочитанных сообщений. Каждый третий (1980) SATRip-AVC от New-Team

110 | 10

744.42 МБ

В этой теме нет новых непрочитанных сообщений. Факт (1980) SATRip от New-Team

38 | 4

1.48 ГБ

В этой теме нет новых непрочитанных сообщений. Факт (1980) SATRip от New-Team

19 | 6

745.26 МБ

В этой теме нет новых непрочитанных сообщений. Факт (1980) SATRip-AVC от New-Team

33 | 4

1.09 ГБ

В этой теме нет новых непрочитанных сообщений. Свадебная ночь (1980) SATRip-AVC от New-Team

37 | 10

1.09 ГБ

В этой теме нет новых непрочитанных сообщений. Ты должен жить (1980) SATRip-AVC от New-Team

8 | 6

1.09 ГБ

В этой теме нет новых непрочитанных сообщений. Ты должен жить (1980) SATRip от New-Team

14 | 8

751.63 МБ




Вы не можете начинать темы
Вы не можете отвечать на сообщения
Вы не можете редактировать свои сообщения
Вы не можете удалять свои сообщения
Вы не можете добавлять вложения

Перейти:  
Для Мосгорсуда, Роскомнадзора и рекламодателей: mosgorsud-torrent[собачка]yandex.ru
 Вход
ppkBB3cker v.2 © 2008-2014 @ PPK
[ Time : 0.026s | 17 Queries | GZIP : Off ]

Торрент трекер RUTOR.IN, Не можете зайти на rutor.org? Какой новый адрес рутор? Какое зеркало рутор? Не работает rutor.org и зеркала? Тогда наш торрент специально для вас. Rutor.in неофициальное зеркало rutor. В случае если у Вас заблокирован rutor или вдруг Вы не можете на него зайти, то Вы без труда сможете скачать бесплатно и без рекламы последние новинки кино, игр, сериалов и прочего у нас, на Rutor.in. Не нужно использовать прокси, чтобы зайти на рутор, достаточно воспользоваться нашим ресурсом. Все новые фильмы, игры, сериалы, книги и музыка за 2013 и 2014 годы через торрент бесплатно. Скачивайте фильмы в хорошем качестве, игры для пк, xbox, playstation без регистрации. У нас вы найдете новые Зарубежные сериалы и Русские сериалы 2013, 2014, 2015 годов. Оставайтесь с нами, качайте любимые фильмы, игры, сериалы, книги и музыку.