img image001 image001 image001 image001 image001 image001 image001 image001 image001 image001 image001 image001 image001 image001 image001

Planets Sun Sun Sun
Статистика раздачи
Автор: Nickolas3434 | Размер: 743.85 МБ | Добавлен: 12 окт 2015
Раздают: 31    Качают: 8
Скачать торрент
Скачать торрент
Описание торрента

СообщениеДобавлено: 12 окт 2015 

Страна: СССР
Производство: Беларусьфильм

Жанр: драма, военный
Год выпуска: 1980
Продолжительность: 01:04:29

Перевод: Не требуется
Cубтитры: нет
Оригинальная аудиодорожка: русский

Режиссер: Александр Карпов

В ролях:
Ирина Корытникова, Наталья Андрейченко, Михаил Долгинин, Пётр Юрченков (ст.), Татьяна Шашалевич-Дедюшко, Виктор Тарасов, Августин Милованов, Юрий Ступаков, Иван Сидоров...
Полный список актёров

Описание:
По повести Ивана Шамякина.
Лето 1942 года. Партизанская связная Валя Мережко направляется в город на связь с подпольщиками. Ее связным оказывается Степан - они полюбили друг друга еще до войны. Лето 1943 года. В партизанский отряд для выполнения особо важного задания прибывает с большой земли красивая разведчица Маша. Валя через Степана связывает Машу с подпольщиками. Временами ей кажется, что Степан может полюбить Машу. Однажды, не выдержав мук ревности, Валя пробирается в город и попадает на свадьбу Степана и Маши. Она не знала, что свадьбу устроили партизаны, чтобы осветить железнодорожную станцию и, тем самым, помочь советским бомбардировщикам. Эта "свадьба" закончится тем, что Маша и Степан попадут в руки немцев и будут приговорены к расстрелу.





Источник: DVB
Качество видео: SATRip
Формат видео: AVI

Видео: 688x512 (4:3), 25 fps, XviD ~ 1411 kbps avg, 0.160 bit/pixel
Аудио: 48 kHz, Dolby Digital AC3 2.0, 192 kbps

Раздача от:
Общее
Полное имя : Svadebnaya.noch.1980.SATRip_[New-team]_by_AVP_Studio.avi
Формат : AVI
Формат/Информация : Audio Video Interleave
Размер файла : 744 Мбайт
Продолжительность : 1 ч. 4 м.
Общий поток : 1613 Кбит/сек
Программа кодирования : VirtualDubMod 1.5.10.3 | www.virtualdub-fr.org || (build 2550/release)
Библиотека кодирования : VirtualDubMod build 2550/release

Видео
Идентификатор : 0
Формат : MPEG-4 Visual
Профиль формата : Advanced Simple@L5
Параметр BVOP формата : 1
Параметр QPel формата : Нет
Параметр GMC формата : Без точки перехода
Параметр матрицы формата : Выборочная
Идентификатор кодека : XVID
Идентификатор кодека/Подсказка : XviD
Продолжительность : 1 ч. 4 м.
Битрейт : 1411 Кбит/сек
Ширина : 688 пикселей
Высота : 512 пикселей
Соотношение сторон : 4:3
Частота кадров : 25,000 кадров/сек
Цветовое пространство : YUV
Субдискретизация насыщенности : 4:2:0
Битовая глубина : 8 бит
Тип развёртки : Прогрессивная
Метод сжатия : С потерями
Бит/(Пиксели*Кадры) : 0.160
Размер потока : 651 Мбайт (87%)
Библиотека кодирования : XviD 73

Аудио
Идентификатор : 1
Формат : AC-3
Формат/Информация : Audio Coding 3
Расширение режима : CM (complete main)
Параметр Endianness формата : Big
Идентификатор кодека : 2000
Продолжительность : 1 ч. 4 м.
Вид битрейта : Постоянный
Битрейт : 192 Кбит/сек
Каналы : 2 канала
Расположение каналов : Front: L R
Частота : 48,0 КГц
Метод сжатия : С потерями
Размер потока : 88,6 Мбайт (12%)
Выравнивание : Разделение по промежуткам
Продолжительность промежутка : 40 мс. (1,00 видеокадр)
Время предзагрузки промежутка : 500 мс





   Похожие торренты   Торрент   Размер 
В этой теме нет новых непрочитанных сообщений. Свадебная ночь (1980) SATRip-AVC от New-Team

37 | 10

1.09 ГБ

В этой теме нет новых непрочитанных сообщений. Ночь гонимых / Ночь охоты / La Nuit Des Traquées / The Night Of The Hunted (1980) DVDRip | A

4 | 36

747.02 МБ

В этой теме нет новых непрочитанных сообщений. Ночь гонимых / Ночь охоты / La Nuit Des Traquées / The Night Of The Hunted (1980) DVDRip от R.G. Mega Best

30 | 37

1.12 ГБ

В этой теме нет новых непрочитанных сообщений. Факт (1980) SATRip от New-Team

38 | 4

1.48 ГБ

В этой теме нет новых непрочитанных сообщений. Факт (1980) SATRip от New-Team

19 | 6

745.26 МБ

В этой теме нет новых непрочитанных сообщений. Факт (1980) SATRip-AVC от New-Team

33 | 4

1.09 ГБ

В этой теме нет новых непрочитанных сообщений. Каждый третий (1980) SATRip от New-Team

21 | 3

745.43 МБ




Вы не можете начинать темы
Вы не можете отвечать на сообщения
Вы не можете редактировать свои сообщения
Вы не можете удалять свои сообщения
Вы не можете добавлять вложения

Перейти:  
Для Мосгорсуда, Роскомнадзора и рекламодателей: mosgorsud-torrent[собачка]yandex.ru
 Вход
ppkBB3cker v.2 © 2008-2014 @ PPK
[ Time : 0.041s | 16 Queries | GZIP : Off ]

Торрент трекер RUTOR.IN, Не можете зайти на rutor.org? Какой новый адрес рутор? Какое зеркало рутор? Не работает rutor.org и зеркала? Тогда наш торрент специально для вас. Rutor.in неофициальное зеркало rutor. В случае если у Вас заблокирован rutor или вдруг Вы не можете на него зайти, то Вы без труда сможете скачать бесплатно и без рекламы последние новинки кино, игр, сериалов и прочего у нас, на Rutor.in. Не нужно использовать прокси, чтобы зайти на рутор, достаточно воспользоваться нашим ресурсом. Все новые фильмы, игры, сериалы, книги и музыка за 2013 и 2014 годы через торрент бесплатно. Скачивайте фильмы в хорошем качестве, игры для пк, xbox, playstation без регистрации. У нас вы найдете новые Зарубежные сериалы и Русские сериалы 2013, 2014, 2015 годов. Оставайтесь с нами, качайте любимые фильмы, игры, сериалы, книги и музыку.