img image001 image001 image001 image001 image001 image001 image001 image001 image001 image001 image001 image001 image001 image001 image001

Planets Sun Sun Sun
Статистика раздачи
Автор: Nickolas3434 | Размер: 1.09 ГБ | Добавлен: 12 окт 2015
Раздают: 37    Качают: 10
Скачать торрент
Скачать торрент
Описание торрента

СообщениеДобавлено: 12 окт 2015 

Страна: СССР
Производство: Беларусьфильм

Жанр: драма, военный
Год выпуска: 1980
Продолжительность: 01:04:29

Перевод: Не требуется
Cубтитры: нет
Оригинальная аудиодорожка: русский

Режиссер: Александр Карпов

В ролях:
Ирина Корытникова, Наталья Андрейченко, Михаил Долгинин, Пётр Юрченков (ст.), Татьяна Шашалевич-Дедюшко, Виктор Тарасов, Августин Милованов, Юрий Ступаков, Иван Сидоров...
Полный список актёров

Описание:
По повести Ивана Шамякина.
Лето 1942 года. Партизанская связная Валя Мережко направляется в город на связь с подпольщиками. Ее связным оказывается Степан - они полюбили друг друга еще до войны. Лето 1943 года. В партизанский отряд для выполнения особо важного задания прибывает с большой земли красивая разведчица Маша. Валя через Степана связывает Машу с подпольщиками. Временами ей кажется, что Степан может полюбить Машу. Однажды, не выдержав мук ревности, Валя пробирается в город и попадает на свадьбу Степана и Маши. Она не знала, что свадьбу устроили партизаны, чтобы осветить железнодорожную станцию и, тем самым, помочь советским бомбардировщикам. Эта "свадьба" закончится тем, что Маша и Степан попадут в руки немцев и будут приговорены к расстрелу.





Источник: DVB
Качество видео: SATRip-AVC
Формат видео: MKV

Видео: 696->760x570 (4:3), 25 fps, H264 ~ 2224 kbps avg, 0.224 bit/pixel
Аудио: 48 kHz, Dolby Digital AC3 2.0, 192 kbps

Раздача от:
Общее
Полное имя : Svadebnaya.noch.1980.SATRip-AVC_[New-team]_by_AVP_Studio.mkv
Формат : Matroska
Версия формата : Version 2
Размер файла : 1,09 Гбайт
Продолжительность : 1 ч. 4 м.
Общий поток : 2418 Кбит/сек
Дата кодирования : UTC 2015-10-06 17:45:55
Программа кодирования : mkvmerge v6.1.0 ('Old Devil') built on Mar 4 2013 09:10:42
Библиотека кодирования : libebml v1.3.0 + libmatroska v1.4.0

Видео
Идентификатор : 1
Формат : AVC
Формат/Информация : Advanced Video Codec
Профиль формата : High@L4.1
Параметр CABAC формата : Да
Параметр ReFrames формата : 10 кадров
Идентификатор кодека : V_MPEG4/ISO/AVC
Продолжительность : 1 ч. 4 м.
Битрейт : 2224 Кбит/сек
Ширина : 696 пикселей
Высота : 570 пикселей
Соотношение сторон : 4:3
Режим частоты кадров : Постоянный
Частота кадров : 25,000 кадров/сек
Цветовое пространство : YUV
Субдискретизация насыщенности : 4:2:0
Битовая глубина : 8 бит
Тип развёртки : Прогрессивная
Бит/(Пиксели*Кадры) : 0.224
Размер потока : 1004 Мбайт (90%)
Библиотека кодирования : x264 core 130 r2273 b3065e6
Настройки программы : cabac=1 / ref=10 / deblock=1:-2:-1 / analyse=0x3:0x113 / me=umh / subme=10 / psy=1 / psy_rd=1.00:0.00 / mixed_ref=1 / me_range=32 / chroma_me=1 / trellis=2 / 8x8dct=1 / cqm=0 / deadzone=21,11 / fast_pskip=1 / chroma_qp_offset=-2 / threads=6 / lookahead_threads=1 / sliced_threads=0 / nr=0 / decimate=0 / interlaced=0 / bluray_compat=0 / constrained_intra=0 / bframes=8 / b_pyramid=2 / b_adapt=2 / b_bias=0 / direct=3 / weightb=1 / open_gop=0 / weightp=2 / keyint=250 / keyint_min=25 / scenecut=40 / intra_refresh=0 / rc=2pass / mbtree=0 / bitrate=2224 / ratetol=1.0 / qcomp=0.60 / qpmin=0 / qpmax=69 / qpstep=4 / cplxblur=20.0 / qblur=0.5 / ip_ratio=1.40 / pb_ratio=1.30 / aq=1:1.00
Default : Да
Forced : Нет

Аудио
Идентификатор : 2
Формат : AC-3
Формат/Информация : Audio Coding 3
Расширение режима : CM (complete main)
Параметр Endianness формата : Big
Идентификатор кодека : A_AC3
Продолжительность : 1 ч. 4 м.
Вид битрейта : Постоянный
Битрейт : 192 Кбит/сек
Каналы : 2 канала
Расположение каналов : Front: L R
Частота : 48,0 КГц
Метод сжатия : С потерями
Размер потока : 88,6 Мбайт (8%)
Default : Да
Forced : Нет





   Похожие торренты   Торрент   Размер 
В этой теме нет новых непрочитанных сообщений. Свадебная ночь (1980) SATRip от New-Team

31 | 8

743.85 МБ

В этой теме нет новых непрочитанных сообщений. Ночь гонимых / Ночь охоты / La Nuit Des Traquées / The Night Of The Hunted (1980) DVDRip | A

4 | 36

747.02 МБ

В этой теме нет новых непрочитанных сообщений. Ночь гонимых / Ночь охоты / La Nuit Des Traquées / The Night Of The Hunted (1980) DVDRip от R.G. Mega Best

30 | 37

1.12 ГБ

В этой теме нет новых непрочитанных сообщений. Факт (1980) SATRip от New-Team

19 | 6

745.26 МБ

В этой теме нет новых непрочитанных сообщений. Факт (1980) SATRip-AVC от New-Team

33 | 4

1.09 ГБ

В этой теме нет новых непрочитанных сообщений. Факт (1980) SATRip от New-Team

38 | 4

1.48 ГБ

В этой теме нет новых непрочитанных сообщений. Каждый третий (1980) SATRip от New-Team

21 | 3

745.43 МБ




Вы не можете начинать темы
Вы не можете отвечать на сообщения
Вы не можете редактировать свои сообщения
Вы не можете удалять свои сообщения
Вы не можете добавлять вложения

Перейти:  
Для Мосгорсуда, Роскомнадзора и рекламодателей: mosgorsud-torrent[собачка]yandex.ru
 Вход
ppkBB3cker v.2 © 2008-2014 @ PPK
[ Time : 0.021s | 16 Queries | GZIP : Off ]

Торрент трекер RUTOR.IN, Не можете зайти на rutor.org? Какой новый адрес рутор? Какое зеркало рутор? Не работает rutor.org и зеркала? Тогда наш торрент специально для вас. Rutor.in неофициальное зеркало rutor. В случае если у Вас заблокирован rutor или вдруг Вы не можете на него зайти, то Вы без труда сможете скачать бесплатно и без рекламы последние новинки кино, игр, сериалов и прочего у нас, на Rutor.in. Не нужно использовать прокси, чтобы зайти на рутор, достаточно воспользоваться нашим ресурсом. Все новые фильмы, игры, сериалы, книги и музыка за 2013 и 2014 годы через торрент бесплатно. Скачивайте фильмы в хорошем качестве, игры для пк, xbox, playstation без регистрации. У нас вы найдете новые Зарубежные сериалы и Русские сериалы 2013, 2014, 2015 годов. Оставайтесь с нами, качайте любимые фильмы, игры, сериалы, книги и музыку.