img image001 image001 image001 image001 image001 image001 image001 image001 image001 image001 image001 image001 image001 image001 image001

Planets Sun Sun Sun
Статистика раздачи
Автор: Nickolas3434 | Размер: 744.94 МБ | Добавлен: 12 окт 2015
Раздают: 53    Качают: 11
Скачать торрент
Скачать торрент
Описание торрента

СообщениеДобавлено: 12 окт 2015 

Страна: СССР
Производство: Беларусьфильм

Жанр: военный фильм, драма, экранизация
Год выпуска: 1975
Продолжительность: 01:24:48

Перевод: Не требуется
Cубтитры: нет
Оригинальная аудиодорожка: русский

Режиссер: Борис Степанов

В ролях:
Анатолий Грачёв, Валентин Никулин, Светлана Кузнецова, Владимир Грицевский, Михаил Феоктистов, Валентин Белохвостик, Михаил Федоровский, Ростислав Янковский, Ростислав Шмырёв, Эдуард Горячий, Геннадий Гарбук, Владимир Антоник, Анатолий Коляда, Леонас Цюнис, Светлана Турова, Света Анисимова, Оля Виленто, Лена Голод...
Полный список актёров

Описание:
По одноименной повести В.Быкова.
Великая Отечественная война. Преследуемая немцами небольшая группа партизан переправляется в соседний партизанский лагерь. В повозке четверо: умирающий от ран Тихонов, радистка Клава (на девятом месяце беременности), ездовой Грибоед и раненый Левчук. В первом же бою гибнет Тихонов. Оставшиеся укрываются в гумне сожженного села, окруженного немцами. Здесь Клава рожает мальчика. После очередного боя в живых остается только Левчук и младенец. Прошло тридцать лет. Бывший партизан Левчук приезжает к тому, которого спас ценой невосполнимых потерь и нечеловеческих усилий...





Источник: DVB
Качество видео: SATRip
Формат видео: AVI

Видео: 688x352 (1,955:1), 25 fps, XviD ~ 1026 kbps avg, 0.170 bit/pixel
Аудио: 48 kHz, Dolby Digital AC3 2.0, 192 kbps

Раздача от:
Общее
Полное имя : Volchya.staya.1975.SATRip_[New-team]_by_AVP_Studio.avi
Формат : AVI
Формат/Информация : Audio Video Interleave
Размер файла : 745 Мбайт
Продолжительность : 1 ч. 24 м.
Общий поток : 1228 Кбит/сек
Программа кодирования : VirtualDubMod 1.5.10.3 | www.virtualdub-fr.org || (build 2550/release)
Библиотека кодирования : VirtualDubMod build 2550/release

Видео
Идентификатор : 0
Формат : MPEG-4 Visual
Профиль формата : Advanced Simple@L5
Параметр BVOP формата : 1
Параметр QPel формата : Нет
Параметр GMC формата : Без точки перехода
Параметр матрицы формата : Выборочная
Идентификатор кодека : XVID
Идентификатор кодека/Подсказка : XviD
Продолжительность : 1 ч. 24 м.
Битрейт : 1026 Кбит/сек
Ширина : 688 пикселей
Высота : 352 пикселя
Соотношение сторон : 1,955
Частота кадров : 25,000 кадров/сек
Цветовое пространство : YUV
Субдискретизация насыщенности : 4:2:0
Битовая глубина : 8 бит
Тип развёртки : Прогрессивная
Метод сжатия : С потерями
Бит/(Пиксели*Кадры) : 0.170
Размер потока : 623 Мбайт (84%)
Библиотека кодирования : XviD 73

Аудио
Идентификатор : 1
Формат : AC-3
Формат/Информация : Audio Coding 3
Расширение режима : CM (complete main)
Параметр Endianness формата : Big
Идентификатор кодека : 2000
Продолжительность : 1 ч. 24 м.
Вид битрейта : Постоянный
Битрейт : 192 Кбит/сек
Каналы : 2 канала
Расположение каналов : Front: L R
Частота : 48,0 КГц
Метод сжатия : С потерями
Размер потока : 116 Мбайт (16%)
Выравнивание : Разделение по промежуткам
Продолжительность промежутка : 40 мс. (1,00 видеокадр)
Время предзагрузки промежутка : 500 мс





   Похожие торренты   Торрент   Размер 
В этой теме нет новых непрочитанных сообщений. Волчья стая (1975) SATRip-AVC от New-Team

124 | 8

744.06 МБ

В этой теме нет новых непрочитанных сообщений. Волчья стая (1975) DVDRip

96 | 16

700.33 МБ

В этой теме нет новых непрочитанных сообщений. Василь Быков - Волчья стая (2009) MP3

20 | 4

381.97 МБ

В этой теме нет новых непрочитанных сообщений. Сурен Цормудян - Резервация 2051. Волчья стая (2012) RTF, FB2, TXT

24 | 5

5.45 МБ

В этой теме нет новых непрочитанных сообщений. Вольная Стая - Стая (2007) MP3

1 | 2

94.89 МБ

В этой теме нет новых непрочитанных сообщений. Братушка / Bratyuzhka (1975) SATRip-AVC от New-Team

31 | 6

1.09 ГБ

В этой теме нет новых непрочитанных сообщений. Братушка / Bratyuzhka (1975) SATRip от New-Team

21 | 8

746.75 МБ




Вы не можете начинать темы
Вы не можете отвечать на сообщения
Вы не можете редактировать свои сообщения
Вы не можете удалять свои сообщения
Вы не можете добавлять вложения

Перейти:  
Для Мосгорсуда, Роскомнадзора и рекламодателей: mosgorsud-torrent[собачка]yandex.ru
 Вход
ppkBB3cker v.2 © 2008-2014 @ PPK
[ Time : 0.043s | 15 Queries | GZIP : Off ]
CGP output time : 0.033s | 5 Queries | GZIP : Off

Торрент трекер RUTOR.IN, Не можете зайти на rutor.org? Какой новый адрес рутор? Какое зеркало рутор? Не работает rutor.org и зеркала? Тогда наш торрент специально для вас. Rutor.in неофициальное зеркало rutor. В случае если у Вас заблокирован rutor или вдруг Вы не можете на него зайти, то Вы без труда сможете скачать бесплатно и без рекламы последние новинки кино, игр, сериалов и прочего у нас, на Rutor.in. Не нужно использовать прокси, чтобы зайти на рутор, достаточно воспользоваться нашим ресурсом. Все новые фильмы, игры, сериалы, книги и музыка за 2013 и 2014 годы через торрент бесплатно. Скачивайте фильмы в хорошем качестве, игры для пк, xbox, playstation без регистрации. У нас вы найдете новые Зарубежные сериалы и Русские сериалы 2013, 2014, 2015 годов. Оставайтесь с нами, качайте любимые фильмы, игры, сериалы, книги и музыку.