img image001 image001 image001 image001 image001 image001 image001 image001 image001 image001 image001 image001 image001 image001 image001

Planets Sun Sun Sun
Статистика раздачи
Автор: Nickolas3434 | Размер: 744.06 МБ | Добавлен: 12 окт 2015
Раздают: 133    Качают: 6
Скачать торрент
Скачать торрент
Описание торрента

СообщениеДобавлено: 12 окт 2015 

Страна: СССР
Производство: Беларусьфильм

Жанр: военный фильм, драма, экранизация
Год выпуска: 1975
Продолжительность: 01:24:48

Перевод: Не требуется
Cубтитры: нет
Оригинальная аудиодорожка: русский

Режиссер: Борис Степанов

В ролях:
Анатолий Грачёв, Валентин Никулин, Светлана Кузнецова, Владимир Грицевский, Михаил Феоктистов, Валентин Белохвостик, Михаил Федоровский, Ростислав Янковский, Ростислав Шмырёв, Эдуард Горячий, Геннадий Гарбук, Владимир Антоник, Анатолий Коляда, Леонас Цюнис, Светлана Турова, Света Анисимова, Оля Виленто, Лена Голод...
Полный список актёров

Описание:
По одноименной повести В.Быкова.
Великая Отечественная война. Преследуемая немцами небольшая группа партизан переправляется в соседний партизанский лагерь. В повозке четверо: умирающий от ран Тихонов, радистка Клава (на девятом месяце беременности), ездовой Грибоед и раненый Левчук. В первом же бою гибнет Тихонов. Оставшиеся укрываются в гумне сожженного села, окруженного немцами. Здесь Клава рожает мальчика. После очередного боя в живых остается только Левчук и младенец. Прошло тридцать лет. Бывший партизан Левчук приезжает к тому, которого спас ценой невосполнимых потерь и нечеловеческих усилий...





Источник: DVB
Качество видео: SATRip-AVC
Формат видео: MKV

Видео: 696->746x378 (1,971:1), 25 fps, H264 ~ 1033 kbps avg, 0.157 bit/pixel
Аудио: 48 kHz, Dolby Digital AC3 2.0, 192 kbps

Раздача от:
Общее
Полное имя : Volchya.staya.1975.SATRip-AVC_[New-team]_by_AVP_Studio.mkv
Формат : Matroska
Версия формата : Version 2
Размер файла : 744 Мбайт
Продолжительность : 1 ч. 24 м.
Общий поток : 1227 Кбит/сек
Дата кодирования : UTC 2015-10-06 20:33:00
Программа кодирования : mkvmerge v6.1.0 ('Old Devil') built on Mar 4 2013 09:10:42
Библиотека кодирования : libebml v1.3.0 + libmatroska v1.4.0

Видео
Идентификатор : 1
Формат : AVC
Формат/Информация : Advanced Video Codec
Профиль формата : High@L4.1
Параметр CABAC формата : Да
Параметр ReFrames формата : 10 кадров
Идентификатор кодека : V_MPEG4/ISO/AVC
Продолжительность : 1 ч. 24 м.
Битрейт : 1033 Кбит/сек
Ширина : 696 пикселей
Высота : 378 пикселей
Соотношение сторон : 1,971
Соотношение сторон в оригинале : 1,970
Режим частоты кадров : Постоянный
Частота кадров : 25,000 кадров/сек
Цветовое пространство : YUV
Субдискретизация насыщенности : 4:2:0
Битовая глубина : 8 бит
Тип развёртки : Прогрессивная
Бит/(Пиксели*Кадры) : 0.157
Размер потока : 613 Мбайт (82%)
Библиотека кодирования : x264 core 130 r2273 b3065e6
Настройки программы : cabac=1 / ref=10 / deblock=1:-2:-1 / analyse=0x3:0x113 / me=umh / subme=10 / psy=1 / psy_rd=1.00:0.00 / mixed_ref=1 / me_range=32 / chroma_me=1 / trellis=2 / 8x8dct=1 / cqm=0 / deadzone=21,11 / fast_pskip=1 / chroma_qp_offset=-2 / threads=6 / lookahead_threads=1 / sliced_threads=0 / nr=0 / decimate=0 / interlaced=0 / bluray_compat=0 / constrained_intra=0 / bframes=8 / b_pyramid=2 / b_adapt=2 / b_bias=0 / direct=3 / weightb=1 / open_gop=0 / weightp=2 / keyint=250 / keyint_min=25 / scenecut=40 / intra_refresh=0 / rc=2pass / mbtree=0 / bitrate=1033 / ratetol=1.0 / qcomp=0.60 / qpmin=0 / qpmax=69 / qpstep=4 / cplxblur=20.0 / qblur=0.5 / ip_ratio=1.40 / pb_ratio=1.30 / aq=1:1.00
Default : Да
Forced : Нет

Аудио
Идентификатор : 2
Формат : AC-3
Формат/Информация : Audio Coding 3
Расширение режима : CM (complete main)
Параметр Endianness формата : Big
Идентификатор кодека : A_AC3
Продолжительность : 1 ч. 24 м.
Вид битрейта : Постоянный
Битрейт : 192 Кбит/сек
Каналы : 2 канала
Расположение каналов : Front: L R
Частота : 48,0 КГц
Метод сжатия : С потерями
Размер потока : 116 Мбайт (16%)
Default : Да
Forced : Нет





   Похожие торренты   Торрент   Размер 
В этой теме нет новых непрочитанных сообщений. Волчья стая (1975) SATRip от New-Team

72 | 12

744.94 МБ

В этой теме нет новых непрочитанных сообщений. Волчья стая (1975) DVDRip

96 | 16

700.33 МБ

В этой теме нет новых непрочитанных сообщений. Василь Быков - Волчья стая (2009) MP3

20 | 4

381.97 МБ

В этой теме нет новых непрочитанных сообщений. Сурен Цормудян - Резервация 2051. Волчья стая (2012) RTF, FB2, TXT

24 | 5

5.45 МБ

В этой теме нет новых непрочитанных сообщений. Вольная Стая - Стая (2007) MP3

1 | 2

94.89 МБ

В этой теме нет новых непрочитанных сообщений. Братушка / Bratyuzhka (1975) SATRip от New-Team

19 | 10

1.07 ГБ

В этой теме нет новых непрочитанных сообщений. Братушка / Bratyuzhka (1975) SATRip от New-Team

27 | 7

746.75 МБ




Вы не можете начинать темы
Вы не можете отвечать на сообщения
Вы не можете редактировать свои сообщения
Вы не можете удалять свои сообщения
Вы не можете добавлять вложения

Перейти:  
Для Мосгорсуда, Роскомнадзора и рекламодателей: mosgorsud-torrent[собачка]yandex.ru
 Вход
ppkBB3cker v.2 © 2008-2014 @ PPK
[ Time : 0.736s | 16 Queries | GZIP : On ]

Торрент трекер RUTOR.IN, Не можете зайти на rutor.org? Какой новый адрес рутор? Какое зеркало рутор? Не работает rutor.org и зеркала? Тогда наш торрент специально для вас. Rutor.in неофициальное зеркало rutor. В случае если у Вас заблокирован rutor или вдруг Вы не можете на него зайти, то Вы без труда сможете скачать бесплатно и без рекламы последние новинки кино, игр, сериалов и прочего у нас, на Rutor.in. Не нужно использовать прокси, чтобы зайти на рутор, достаточно воспользоваться нашим ресурсом. Все новые фильмы, игры, сериалы, книги и музыка за 2013 и 2014 годы через торрент бесплатно. Скачивайте фильмы в хорошем качестве, игры для пк, xbox, playstation без регистрации. У нас вы найдете новые Зарубежные сериалы и Русские сериалы 2013, 2014, 2015 годов. Оставайтесь с нами, качайте любимые фильмы, игры, сериалы, книги и музыку.