img image001 image001 image001 image001 image001 image001 image001 image001 image001 image001 image001 image001 image001 image001 image001

Planets Sun Sun Sun
Статистика раздачи
Автор: Nickolas3434 | Размер: 743.61 МБ | Добавлен: 12 окт 2015
Раздают: 5    Качают: 5
Скачать торрент
Скачать торрент
Описание торрента

СообщениеДобавлено: 12 окт 2015 

Страна: СССР
Производство: Мосфильм

Жанр: военный фильм
Год выпуска: 1984
Продолжительность: 00:58:02

Перевод: Не требуется
Cубтитры: нет
Оригинальная аудиодорожка: русский

Режиссер: Владимир Иванов, Георгий Щукин

В ролях:
Ольга Башкина, Николай Стоцкий, Татьяна Лебедева, Иван Щёголев, Светлана Рябова, Ирина Ефремова, Марина Сахарова, Алексей Елизаветский, Владимир Некрасов, Дмитрий Липскеров, Павел Семенихин, Евгений Буренков, Сергей Яковлев, Григорий Абрикосов, Юрий Саранцев, Тамара Сёмина, Вячеслав Шалевич, Николай Тимофеев...
Полный список актёров

Описание:
В основу этой киноистории легли реальные факты.
В июне 1941-го года курс выпускников театрального училища был направлен в Беловежск, чтобы создать в городе профессиональный театр. Война перечеркнула все планы. Став "Особым подразделением" - актерской бригадой в составе действующей армии, - герои фильма пройдут по многим фронтовым дорогам...





Исходник: DVВ
Тип релиза: SATRip
Контейнер: AVI

Видео: 688x304 (2,25:1), 25 fps, XviD ~ 1590 kbps avg, 0.304 bit/pixel
Аудио: 48 kHz, Dolby Digital AC3 2.0, 192 kbps

Раздача от:
Общее
Полное имя : E:Tracker2014Особое подразделениеOsoboe.podrazdelenie.1984.SATRip_[New-team]_by_AVP_Studio.avi
Формат : AVI
Формат/Информация : Audio Video Interleave
Размер файла : 744 Мбайт
Продолжительность : 58 м.
Общий поток : 1791 Кбит/сек
Программа кодирования : VirtualDubMod 1.5.10.3 | www.virtualdub-fr.org || (build 2550/release)
Библиотека кодирования : VirtualDubMod build 2550/release

Видео
Идентификатор : 0
Формат : MPEG-4 Visual
Профиль формата : Advanced Simple@L5
Параметр BVOP формата : 1
Параметр QPel формата : Нет
Параметр GMC формата : Без точки перехода
Параметр матрицы формата : Выборочная
Идентификатор кодека : XVID
Идентификатор кодека/Подсказка : XviD
Продолжительность : 58 м.
Битрейт : 1590 Кбит/сек
Ширина : 688 пикселей
Высота : 304 пикселя
Соотношение сторон : 2,25:1
Частота кадров : 25,000 кадров/сек
Цветовое пространство : YUV
Субдискретизация насыщенности : 4:2:0
Битовая глубина : 8 бит
Тип развёртки : Прогрессивная
Метод сжатия : С потерями
Бит/(Пиксели*Кадры) : 0.304
Размер потока : 660 Мбайт (89%)
Библиотека кодирования : XviD 73

Аудио
Идентификатор : 1
Формат : AC-3
Формат/Информация : Audio Coding 3
Расширение режима : CM (complete main)
Параметр Endianness формата : Big
Идентификатор кодека : 2000
Продолжительность : 58 м.
Вид битрейта : Постоянный
Битрейт : 192 Кбит/сек
Каналы : 2 канала
Расположение каналов : Front: L R
Частота : 48,0 КГц
Метод сжатия : С потерями
Размер потока : 79,7 Мбайт (11%)
Выравнивание : Разделение по промежуткам
Продолжительность промежутка : 40 мс. (1,00 видеокадр)
Время предзагрузки промежутка : 500 мс





   Похожие торренты   Торрент   Размер 
В этой теме нет новых непрочитанных сообщений. Особое подразделение (1984) SATRip от New-Team

25 | 7

741.11 МБ

В этой теме нет новых непрочитанных сообщений. Особое подразделение (1984) SATRip-AVC от New-Team

113 | 8

744.63 МБ

В этой теме нет новых непрочитанных сообщений. Особое подразделение (1984) SATRip-AVC от New-Team

53 | 4

744.63 МБ

В этой теме нет новых непрочитанных сообщений. Отряд (1984) SATRip от New-Team

138 | 284

745.25 МБ

В этой теме нет новых непрочитанных сообщений. Особое поручение (1957) VHSRip-AVC от New-Team

4 | 0

1.09 ГБ

В этой теме нет новых непрочитанных сообщений. Особое поручение (1957) VHSRip от New-Team

13 | 0

1.09 ГБ

В этой теме нет новых непрочитанных сообщений. Особое мнение. Николай Сванидзе [05.08, 05.22] (2015) SATRip

16 | 0

1.33 ГБ




Вы не можете начинать темы
Вы не можете отвечать на сообщения
Вы не можете редактировать свои сообщения
Вы не можете удалять свои сообщения
Вы не можете добавлять вложения

Перейти:  
Для Мосгорсуда, Роскомнадзора и рекламодателей: mosgorsud-torrent[собачка]yandex.ru
 Вход
ppkBB3cker v.2 © 2008-2014 @ PPK
[ Time : 0.149s | 15 Queries | GZIP : Off ]

Торрент трекер RUTOR.IN, Не можете зайти на rutor.org? Какой новый адрес рутор? Какое зеркало рутор? Не работает rutor.org и зеркала? Тогда наш торрент специально для вас. Rutor.in неофициальное зеркало rutor. В случае если у Вас заблокирован rutor или вдруг Вы не можете на него зайти, то Вы без труда сможете скачать бесплатно и без рекламы последние новинки кино, игр, сериалов и прочего у нас, на Rutor.in. Не нужно использовать прокси, чтобы зайти на рутор, достаточно воспользоваться нашим ресурсом. Все новые фильмы, игры, сериалы, книги и музыка за 2013 и 2014 годы через торрент бесплатно. Скачивайте фильмы в хорошем качестве, игры для пк, xbox, playstation без регистрации. У нас вы найдете новые Зарубежные сериалы и Русские сериалы 2013, 2014, 2015 годов. Оставайтесь с нами, качайте любимые фильмы, игры, сериалы, книги и музыку.