img image001 image001 image001 image001 image001 image001 image001 image001 image001 image001 image001 image001 image001 image001 image001

Planets Sun Sun Sun
Статистика раздачи
Автор: Nickolas3434 | Размер: 1.29 ГБ | Добавлен: 12 окт 2015
Раздают: 492    Качают: 15
Скачать торрент
Скачать торрент
Описание торрента

СообщениеДобавлено: 12 окт 2015 



Информация о фильме
Название: Самое главное
Год выхода: 2015
Жанр: Мелодрама
Режиссер: Александр Ефремов
В ролях: Олеся Грибок, Борис Хвошнянский, Алёна Ивченко, Павел Яскевич, Иван Стрельцов, Юлианна Михневич, Тамара Миронова, Полина Стефанович, Алексей Юцкевич

О фильме:
Даше 20 лет, она живет в провинциальном городе и работает с детьми в художественно-образовательном центре. У Даши есть бабушка, а больше никого: мама умерла несколько лет назад, а о своем отце Даша знает только то, что он погиб еще до ее рождения…
Но наступает момент, когда бабушка решается открыть Даше правду. Оказывается, отец Даши вовсе не погиб… Он жив-здоров, живет в Москве и не знает, что у него есть дочь…
Даша едет в Москву, чтобы познакомиться со своим отцом – Владимиром Бестужевым.
Владимир - бизнесмен, владелец ресторана. Он красив, уверен в себе и относится к категории мужчин «без возраста». Владимир пользуется большим успехом у женщин, но женат никогда не был, предпочитая легкие, свободные отношения, без каких-либо обязательств…
Появление взрослой дочери отнюдь не радует Владимира, для него это проблема, которую надо решать… Станут ли отец и дочь по-настоящему родными? Сможет ли Владимир по-новому взглянуть на свою жизнь и понять, что для него самое главное?
Страна: Россия
Продолжительность: 01:31:58
Перевод: Не требуется

Файл
Кодек: XviD
Качество: SATRip
Видео: 720x400 25.00fps 1800kbps
Звук: 48000Hz stereo 192kbps


Общее
Полное имя : D:Samoe.Glavnoe.SATRip.avi
Формат : AVI
Формат/Информация : Audio Video Interleave
Размер файла : 1,29 Гбайт
Продолжительность : 1 ч. 32 м.
Общий поток : 2002 Кбит/сек
Программа кодирования : VirtualDubMod 1.5.10.3 | www.virtualdub-fr.org || (build 2550/release)
Библиотека кодирования : VirtualDub build 35491/release

Видео
Идентификатор : 0
Формат : MPEG-4 Visual
Профиль формата : Advanced Simple@L5
Параметр BVOP формата : 2
Параметр QPel формата : Нет
Параметр GMC формата : Без точки перехода
Параметр матрицы формата : Default (H.263)
Идентификатор кодека : XVID
Идентификатор кодека/Подсказка : XviD
Продолжительность : 1 ч. 32 м.
Битрейт : 1800 Кбит/сек
Ширина : 720 пикселей
Высота : 400 пикселей
Соотношение сторон : 16:9
Частота кадров : 25,000 кадров/сек
Цветовое пространство : YUV
Субдискретизация насыщенности : 4:2:0
Битовая глубина : 8 бит
Тип развёртки : Прогрессивная
Метод сжатия : С потерями
Бит/(Пиксели*Кадры) : 0.250
Размер потока : 1,16 Гбайт (90%)
Библиотека кодирования : XviD 1.2.1 (UTC 2008-12-04)

Аудио
Идентификатор : 1
Формат : AC-3
Формат/Информация : Audio Coding 3
Расширение режима : CM (complete main)
Параметр Endianness формата : Big
Идентификатор кодека : 2000
Продолжительность : 1 ч. 32 м.
Вид битрейта : Постоянный
Битрейт : 192 Кбит/сек
Каналы : 2 канала
Расположение каналов : Front: L R
Частота : 48,0 КГц
Метод сжатия : С потерями
Размер потока : 126 Мбайт (10%)
Выравнивание : Разделение по промежуткам
Продолжительность промежутка : 40 мс. (1,00 видеокадр)
Время предзагрузки промежутка : 500 мс.



Релиз от:



   Похожие торренты   Торрент   Размер 
В этой теме нет новых непрочитанных сообщений. Главное - успеть (2007) SATRip от КинозалSAT

1 | 4

1.37 ГБ

В этой теме нет новых непрочитанных сообщений. Главное. Итоговая программа [24.11] (2013) SATRip от РиперАМ

0 | 1

666.42 МБ

В этой теме нет новых непрочитанных сообщений. Главное. Итоговая программа [04.11] (2013) SATRip от РиперАМ

0 | 1

663.29 МБ

В этой теме нет новых непрочитанных сообщений. Главное. Итоговая программа [10.11] (2013) SATRip от РиперАМ

0 | 1

655.12 МБ

В этой теме нет новых непрочитанных сообщений. Главное. Итоговая программа [26.01] (2014) SATRip от РиперАМ

4 | 2

649.76 МБ

В этой теме нет новых непрочитанных сообщений. Главное. Итоговая программа [06.10] (2013) SATRip от РиперАМ

0 | 1

657.04 МБ

В этой теме нет новых непрочитанных сообщений. Главное. Итоговая программа [22.12] (2013) SATRip от РиперАМ

0 | 1

663.61 МБ




Вы не можете начинать темы
Вы не можете отвечать на сообщения
Вы не можете редактировать свои сообщения
Вы не можете удалять свои сообщения
Вы не можете добавлять вложения

Перейти:  
Для Мосгорсуда, Роскомнадзора и рекламодателей: mosgorsud-torrent[собачка]yandex.ru
 Вход
ppkBB3cker v.2 © 2008-2014 @ PPK
[ Time : 1.152s | 15 Queries | GZIP : Off ]

Торрент трекер RUTOR.IN, Не можете зайти на rutor.org? Какой новый адрес рутор? Какое зеркало рутор? Не работает rutor.org и зеркала? Тогда наш торрент специально для вас. Rutor.in неофициальное зеркало rutor. В случае если у Вас заблокирован rutor или вдруг Вы не можете на него зайти, то Вы без труда сможете скачать бесплатно и без рекламы последние новинки кино, игр, сериалов и прочего у нас, на Rutor.in. Не нужно использовать прокси, чтобы зайти на рутор, достаточно воспользоваться нашим ресурсом. Все новые фильмы, игры, сериалы, книги и музыка за 2013 и 2014 годы через торрент бесплатно. Скачивайте фильмы в хорошем качестве, игры для пк, xbox, playstation без регистрации. У нас вы найдете новые Зарубежные сериалы и Русские сериалы 2013, 2014, 2015 годов. Оставайтесь с нами, качайте любимые фильмы, игры, сериалы, книги и музыку.
cron