img image001 image001 image001 image001 image001 image001 image001 image001 image001 image001 image001 image001 image001 image001 image001

Planets Sun Sun Sun
Статистика раздачи
Автор: Nickolas3434 | Размер: 745.81 МБ | Добавлен: 12 окт 2015
Раздают: 576    Качают: 38
Скачать торрент
Скачать торрент
Описание торрента

СообщениеДобавлено: 12 окт 2015 



Информация о фильме
Название: Некрасивая Любовь
Год выхода: 2015
Год производства:2013
Жанр: Драма, комедия
Режиссер: Кира Ангелина
В ролях: Дарья Екамасова, Сергей Жарков, Мария Букнис, Евгений Штырбул, Микаэлла Дель, Дмитрий Титов, Светлана Свибильская

О фильме:
Вся жизнь дурнушки Любы – беспросветная черная полоса. Девушка одинока, в городке над ней потешаются, а мать пытается свести ее с богатым стариком и поскорее сбыть с рук. Вероятно, «гадкого утенка» ожидал печальный финал, если б однажды доведенная до отчаяния Люба не решилась на сумасшедшую аферу, перевернувшую с ног на голову жизнь в маленьком городке. Девушка похищает деньги из банка и сбегает с «первым парнем на деревне», суля ему миллион за одну-единственную ночь…



Страна: Россия
Студия: Кинокомпания Русское
Продолжительность: 01:30:13
Перевод: Не требуется

Файл
Кодек: XviD
Качество: HDTVRip
Видео: 624x352 (1.77:1), 25 fps, XviD build 73 ~1018 kbps avg, 0.19 bit/pixel
Звук: 48 kHz, MPEG Layer 3, 2 ch, ~128.00 kbps avg
Субтитры: Отсутствует

Семпл

General
Complete name : D:ТоррентыМои рипыНекрасивая ЛюбовьNekrasivaja.liubov.2013(2015).HDTVRip.shkiper.avi
Format : AVI
Format/Info : Audio Video Interleave
File size : 746 MiB
Duration : 1h 30mn
Overall bit rate : 1 156 Kbps
Writing application : VirtualDubMod 1.5.10.3 | www.virtualdub-fr.org || (build 2550/release)
Writing library : VirtualDubMod build 2550/release

Video
ID : 0
Format : MPEG-4 Visual
Format profile : Advanced Simple@L5
Format settings, BVOP : 1
Format settings, QPel : No
Format settings, GMC : No warppoints
Format settings, Matrix : Custom
Codec ID : XVID
Codec ID/Hint : XviD
Duration : 1h 30mn
Bit rate : 1 018 Kbps
Width : 624 pixels
Height : 352 pixels
Display aspect ratio : 16:9
Frame rate : 25.000 fps
Color space : YUV
Chroma subsampling : 4:2:0
Bit depth : 8 bits
Scan type : Progressive
Compression mode : Lossy
Bits/(Pixel*Frame) : 0.185
Stream size : 657 MiB (88%)
Writing library : XviD 73

Audio
ID : 1
Format : MPEG Audio
Format version : Version 1
Format profile : Layer 3
Mode : Joint stereo
Mode extension : MS Stereo
Codec ID : 55
Codec ID/Hint : MP3
Duration : 1h 30mn
Bit rate mode : Constant
Bit rate : 128 Kbps
Channel(s) : 2 channels
Sampling rate : 48.0 KHz
Compression mode : Lossy
Stream size : 82.6 MiB (11%)
Alignment : Aligned on interleaves
Interleave, duration : 40 ms (1.00 video frame)
Interleave, preload duratio : 504 ms
Writing library : LAME3.99r
Encoding settings : -m j -V 4 -q 2 -lowpass 17 -b 128


Релиз от:



   Похожие торренты   Торрент   Размер 
В этой теме нет новых непрочитанных сообщений. Некрасивая Любовь (2015) HDTVRip 720p от MediaClub

429 | 16

2.43 ГБ

В этой теме нет новых непрочитанных сообщений. Некрасивая Любовь (2015) WEB-DLRip от ivandubskoj

339 | 20

746.27 МБ

В этой теме нет новых непрочитанных сообщений. Некрасивая Любовь (2015) WEB-DL 720p от Files-х

352 | 16

1.06 ГБ

В этой теме нет новых непрочитанных сообщений. Некрасивая Любовь (2015) WEB-DLRip от Files-x

2880 | 116

1.37 ГБ

В этой теме нет новых непрочитанных сообщений. Некрасивая Любовь (2015) WEB-DLRip-AVC от Files-x

342 | 14

738.59 МБ

В этой теме нет новых непрочитанных сообщений. Некрасивая Любовь (2015) WEB-DL 1080p от Files-х

359 | 25

1.98 ГБ

В этой теме нет новых непрочитанных сообщений. Нинкина любовь (2015) HDTVRip от Шкипер

663 | 33

745.31 МБ




Вы не можете начинать темы
Вы не можете отвечать на сообщения
Вы не можете редактировать свои сообщения
Вы не можете удалять свои сообщения
Вы не можете добавлять вложения

Перейти:  
Для Мосгорсуда, Роскомнадзора и рекламодателей: mosgorsud-torrent[собачка]yandex.ru
 Вход
ppkBB3cker v.2 © 2008-2014 @ PPK
[ Time : 0.021s | 14 Queries | GZIP : On ]

Торрент трекер RUTOR.IN, Не можете зайти на rutor.org? Какой новый адрес рутор? Какое зеркало рутор? Не работает rutor.org и зеркала? Тогда наш торрент специально для вас. Rutor.in неофициальное зеркало rutor. В случае если у Вас заблокирован rutor или вдруг Вы не можете на него зайти, то Вы без труда сможете скачать бесплатно и без рекламы последние новинки кино, игр, сериалов и прочего у нас, на Rutor.in. Не нужно использовать прокси, чтобы зайти на рутор, достаточно воспользоваться нашим ресурсом. Все новые фильмы, игры, сериалы, книги и музыка за 2013 и 2014 годы через торрент бесплатно. Скачивайте фильмы в хорошем качестве, игры для пк, xbox, playstation без регистрации. У нас вы найдете новые Зарубежные сериалы и Русские сериалы 2013, 2014, 2015 годов. Оставайтесь с нами, качайте любимые фильмы, игры, сериалы, книги и музыку.