img image001 image001 image001 image001 image001 image001 image001 image001 image001 image001 image001 image001 image001 image001 image001

Planets Sun Sun Sun
Статистика раздачи
Автор: Nickolas3434 | Размер: 3 ГБ | Добавлен: 13 окт 2015
Раздают: 40    Качают: 5
Скачать торрент
Скачать торрент
Описание торрента

СообщениеДобавлено: 13 окт 2015 



Информация о фильме
Название: Испытание верности
Год выхода: 1954
Жанр: Мелодрама
Режиссер: Иван Пырьев
В ролях: Юрий Медведев, Олег Голубицкий, Нина Гребешкова, Владимир Гуляев, Владимир Земляникин, Марина Ладынина, Александр Михайлов, Юрий Пузырёв, Станислав Чекан, Леонид Галлис, Николай Тимофеев, Владимир Гусев, Сергей Ромоданов, Василий Топорков, Петр Старковский

О фильме: Кинодрама о непростых человеческих судьбах, о любви и разлуке, измене и преданности, об умении простить ошибку и не бросить близкого человека в беде...О семье старого потомственного рабочего Егора Кузьмича Лутонина по пьесе И. Пырьева и братьев Тур «Семья Лутониных».Этот фильм интересен не только сюжетом и игрой актеров, но и бессмертной музыкой Исаака Осиповича Дунаевского.
Страна: СССР, Мосфильм
Продолжительность: 01:50:29
Перевод: не требуется

Файл
Кодек: x264
Качество: HDTVRip-AVC
Видео: MPEG-4 AVC, 3500 Кбит/с, 1024x576
Звук: AC3, 6 ch, 384 Кбит/с

Общее
Уникальный идентификатор : 233237821083576707555068840711181343123 (0xAF77F86ABF8E7438B4D64BAF89B89993)
Полное имя : D:Испытание верности_1954-HDTVRip-AVC.mkv
Формат : Matroska
Версия формата : Version 2
Размер файла : 3,00 Гбайт
Продолжительность : 1 ч. 50 м.
Общий поток : 3886 Кбит/сек
Дата кодирования : UTC 2015-10-12 18:18:38
Программа кодирования : mkvmerge v5.8.0 ('No Sleep / Pillow') built on Sep 2 2012 15:37:04
Библиотека кодирования : libebml v1.2.3 + libmatroska v1.3.0

Видео
Идентификатор : 1
Формат : AVC
Формат/Информация : Advanced Video Codec
Профиль формата : High@L4.1
Параметр CABAC формата : Да
Параметр ReFrames формата : 13 кадров
Идентификатор кодека : V_MPEG4/ISO/AVC
Продолжительность : 1 ч. 50 м.
Битрейт : 3500 Кбит/сек
Ширина : 1024 пикселя
Высота : 576 пикселей
Соотношение сторон : 16:9
Режим частоты кадров : Постоянный
Частота кадров : 25,000 кадров/сек
Цветовое пространство : YUV
Субдискретизация насыщенности : 4:2:0
Битовая глубина : 8 бит
Тип развёртки : Прогрессивная
Бит/(Пиксели*Кадры) : 0.237
Размер потока : 2,64 Гбайт (88%)
Библиотека кодирования : x264 core 148 r2579 73ae2d1
Настройки программы : cabac=1 / ref=13 / deblock=1:-2:-2 / analyse=0x3:0x133 / me=umh / subme=10 / psy=1 / psy_rd=1.05:0.20 / mixed_ref=1 / me_range=32 / chroma_me=1 / trellis=2 / 8x8dct=1 / cqm=0 / deadzone=21,11 / fast_pskip=0 / chroma_qp_offset=-3 / threads=12 / lookahead_threads=2 / sliced_threads=0 / nr=0 / decimate=0 / interlaced=0 / bluray_compat=0 / constrained_intra=0 / bframes=8 / b_pyramid=2 / b_adapt=2 / b_bias=0 / direct=3 / weightb=1 / open_gop=0 / weightp=2 / keyint=250 / keyint_min=25 / scenecut=40 / intra_refresh=0 / rc=2pass / mbtree=0 / bitrate=3500 / ratetol=1.0 / qcomp=0.63 / qpmin=0 / qpmax=39 / qpstep=4 / cplxblur=20.0 / qblur=0.5 / ip_ratio=1.40 / pb_ratio=1.30 / aq=1:1.00
Язык : English
Default : Да
Forced : Нет
Цветовой диапазон : Limited
Основные цвета : BT.709
Характеристики трансфера : BT.709
Коэффициенты матрицы : BT.709

Аудио
Идентификатор : 2
Формат : AC-3
Формат/Информация : Audio Coding 3
Расширение режима : CM (complete main)
Параметр Endianness формата : Big
Идентификатор кодека : A_AC3
Продолжительность : 1 ч. 50 м.
Вид битрейта : Постоянный
Битрейт : 384 Кбит/сек
Каналы : 6 каналов
Расположение каналов : Front: L C R, Side: L R, LFE
Частота : 48,0 КГц
Метод сжатия : С потерями
Задержка видео : 75 мс.
Размер потока : 303 Мбайт (10%)
Язык : Russian
Default : Да
Forced

Релиз от:
Автор релиза:



   Похожие торренты   Торрент   Размер 
В этой теме нет новых непрочитанных сообщений. Испытание верности (1954) DVDRip

70 | 9

1.37 ГБ

В этой теме нет новых непрочитанных сообщений. Испытание верности (1954) SATRip от New-Team

7 | 5

1.46 ГБ

В этой теме нет новых непрочитанных сообщений. Испытание верности (1954) SATRip от New-Team

6 | 1

1.09 ГБ

В этой теме нет новых непрочитанных сообщений. Испытание верности (1954) SATRip-AVC от New-Team

4 | 4

1.46 ГБ

В этой теме нет новых непрочитанных сообщений. День семьи, любви и верности. Праздничный концерт в Муроме (2016) HDTVRip от GeneralFilm

52 | 2

1.69 ГБ

В этой теме нет новых непрочитанных сообщений. День семьи, любви и верности. Юбилейный праздничный концерт в Муроме (2017) HDTVRip от Files-x

5 | 0

2.28 ГБ

В этой теме нет новых непрочитанных сообщений. Испытание королевского стрелка Шарпа / Sharpe's Challenge (2006) BDRip от ExKinoRay

18 | 9

1.47 ГБ




Вы не можете начинать темы
Вы не можете отвечать на сообщения
Вы не можете редактировать свои сообщения
Вы не можете удалять свои сообщения
Вы не можете добавлять вложения

Перейти:  
Для Мосгорсуда, Роскомнадзора и рекламодателей: mosgorsud-torrent[собачка]yandex.ru
 Вход
ppkBB3cker v.2 © 2008-2014 @ PPK
[ Time : 0.035s | 15 Queries | GZIP : Off ]

cron