img image001 image001 image001 image001 image001 image001 image001 image001 image001 image001 image001 image001 image001 image001 image001

Planets Sun Sun Sun
Статистика раздачи
Автор: Nickolas3434 | Размер: 745.76 МБ | Добавлен: 14 окт 2015
Раздают: 28    Качают: 7
Скачать торрент
Скачать торрент
Описание торрента

СообщениеДобавлено: 14 окт 2015 

«Долг, дружба, любовь... Что важнее?»



Страна: Россия
Производство: ООО "ТО Кинопрограмма ХХI век"
Жанр: детский, приключения
Год выпуска: 2013
Продолжительность: 01:40:18

Перевод: не требуется
Оригинальная аудиодорожка: нет
Cубтитры: нет

Режиссер: Александр Карпиловский

В ролях:
Семен Трескунов, Егор Клинаев, Анфиса Вистингаузен, Юлия Рутберг, Светлана Иванова, Владимир Зайцев, Ирина Линдт, Раиса Рязанова, Роман Мадянов, Евгений Мундум, Валентин Садики, Анастасия Добрынина, Екатерина Дурова, Тимофей Трибунцев, Михаил Васьков, Юлия Полынская, Александр Никольский, Вероника Лысакова, Пётр Ступин, Артём Алексеев, Сергей Походаев, Валера Бажибин, Максим Тихонов, Дмитрий Воронцов...
Полный список актёров

Описание:
Мишка и его верный друг Димка – школьники. Они готовятся к празднованию дня рождения пионерской организации. На рыбалке Мишка падает в реку, но его спасает бездомная собака, с которой ребята очень подружились... Неожиданно собака попадает к скорняку, и только помощь друзей может избавить её от неминуемой гибели. Перед Мишкой и Димкой встает непростой выбор - участие в пионерском празднике или спасение собаки ... Долг, дружба, любовь... Что важнее?





Исходник: HDTV 1080i
Тип релиза: HDTVRip
Контейнер: AVI

Видео: 720x304 (2,35:1), 25 fps, XviD ~ 902 kbps avg, 0.165 bit/pixel
Аудио: 48 kHz, MP3 2.0, 128 kbps

Раздача от:
Общее
Полное имя : Chastnoe.pionerskoe.2013.HDTVRip-745_[New-team]_by_AVP_Studio.avi
Формат : AVI
Формат/Информация : Audio Video Interleave
Размер файла : 746 Мбайт
Продолжительность : 1 ч. 40 м.
Общий поток : 1040 Кбит/сек
Программа кодирования : VirtualDubMod 1.5.10.3 | www.virtualdub-fr.org || (build 2550/release)
Библиотека кодирования : VirtualDubMod build 2550/release

Видео
Идентификатор : 0
Формат : MPEG-4 Visual
Профиль формата : Advanced Simple@L5
Параметр BVOP формата : 1
Параметр QPel формата : Нет
Параметр GMC формата : Без точки перехода
Параметр матрицы формата : Выборочная
Идентификатор кодека : XVID
Идентификатор кодека/Подсказка : XviD
Продолжительность : 1 ч. 40 м.
Битрейт : 902 Кбит/сек
Ширина : 720 пикселей
Высота : 304 пикселя
Соотношение сторон : 2,35:1
Частота кадров : 25,000 кадров/сек
Цветовое пространство : YUV
Субдискретизация насыщенности : 4:2:0
Битовая глубина : 8 бит
Тип развёртки : Прогрессивная
Метод сжатия : С потерями
Бит/(Пиксели*Кадры) : 0.165
Размер потока : 647 Мбайт (87%)
Библиотека кодирования : XviD 73

Аудио
Идентификатор : 1
Формат : MPEG Audio
Версия формата : Version 1
Профиль формата : Layer 3
Идентификатор кодека : 55
Идентификатор кодека/Подсказка : MP3
Продолжительность : 1 ч. 40 м.
Вид битрейта : Постоянный
Битрейт : 128 Кбит/сек
Каналы : 2 канала
Частота : 48,0 КГц
Метод сжатия : С потерями
Размер потока : 91,8 Мбайт (12%)
Выравнивание : Соединение по промежуткам
Продолжительность промежутка : 40 мс. (1,00 видеокадр)
Время предзагрузки промежутка : 504 мс.
Библиотека кодирования : LAME3.99r
Настройки программы : -m s -V 4 -q 2 -lowpass 17 -b 128





   Похожие торренты   Торрент   Размер 
В этой теме нет новых непрочитанных сообщений. Частное пионерское (2013) HDTVRip от New-Team

19 | 2

1.09 ГБ

В этой теме нет новых непрочитанных сообщений. Частное пионерское (2013) HDTVRip-AVC от New-Team

88 | 5

745.37 МБ

В этой теме нет новых непрочитанных сообщений. Частное пионерское (2013) HDTVRip-AVC от New-Team

179 | 16

1.46 ГБ

В этой теме нет новых непрочитанных сообщений. Частное пионерское (2013) HDTVRip 720p от New-Team

94 | 9

2.91 ГБ

В этой теме нет новых непрочитанных сообщений. Частное пионерское (2013) HDTVRip от ivandubskoj

91 | 7

747.06 МБ

В этой теме нет новых непрочитанных сообщений. Частное пионерское (2013) HDTVRip от MediaClub

726 | 29

1.4 ГБ

В этой теме нет новых непрочитанных сообщений. Частное пионерское (2013) HDTVRip 720p от MediaClub

281 | 16

2.74 ГБ




Вы не можете начинать темы
Вы не можете отвечать на сообщения
Вы не можете редактировать свои сообщения
Вы не можете удалять свои сообщения
Вы не можете добавлять вложения

Перейти:  
Для Мосгорсуда, Роскомнадзора и рекламодателей: mosgorsud-torrent[собачка]yandex.ru
 Вход
ppkBB3cker v.2 © 2008-2014 @ PPK
[ Time : 0.022s | 15 Queries | GZIP : Off ]

Торрент трекер RUTOR.IN, Не можете зайти на rutor.org? Какой новый адрес рутор? Какое зеркало рутор? Не работает rutor.org и зеркала? Тогда наш торрент специально для вас. Rutor.in неофициальное зеркало rutor. В случае если у Вас заблокирован rutor или вдруг Вы не можете на него зайти, то Вы без труда сможете скачать бесплатно и без рекламы последние новинки кино, игр, сериалов и прочего у нас, на Rutor.in. Не нужно использовать прокси, чтобы зайти на рутор, достаточно воспользоваться нашим ресурсом. Все новые фильмы, игры, сериалы, книги и музыка за 2013 и 2014 годы через торрент бесплатно. Скачивайте фильмы в хорошем качестве, игры для пк, xbox, playstation без регистрации. У нас вы найдете новые Зарубежные сериалы и Русские сериалы 2013, 2014, 2015 годов. Оставайтесь с нами, качайте любимые фильмы, игры, сериалы, книги и музыку.