img image001 image001 image001 image001 image001 image001 image001 image001 image001 image001 image001 image001 image001 image001 image001

Planets Sun Sun Sun
Статистика раздачи
Автор: Nickolas3434 | Размер: 744.79 МБ | Добавлен: 15 окт 2015
Раздают: 16    Качают: 6
Скачать торрент
Скачать торрент
Описание торрента

СообщениеДобавлено: 15 окт 2015 

Страна: СССР
Производство: Одесская киностудия
Жанр: приключения, военный
Год выпуска: 1975
Продолжительность: 01:10:21
Перевод: Не требуется
Cубтитры: нет
Оригинальная аудиодорожка: русский
Режиссер: Юрий Черный
В ролях:
Светлана Суховей, Борис Никифоров, Владимир Сичкарь, Николай Слёзка, Григоре Григориу, Виктор (Вилли) Бурхарт, Рогволд Суховерко, Виталий Розстальный, Николай Мерзликин (II), Александр Белина, Юрий Дубровин, Виктор Кондратюк, Вадим Вильский, Александр Стародуб, Виктор Полищук...
Полный список актёров
Описание:
В оккупированной фашистами Одессе действует группа партизанского подполья. Советской разведке становится известно, что фашисты собираются уничтожиь порт. Молодая разведчица Тоня Марченко устраивается туда на работу, чтобы узнать подробности плана гитлеровцев. Но шеф гестапо уже заподозрил в ней подпольщицу. Но задача - спасти одесский порт от разрушения во время отступления немцев должна быть выполнена.





Источник: DVD5 R5
Качество видео: DVDRip
Формат видео: AVI
Видео: 688x352 (1,955:1), 25 fps, XviD ~ 1278 kbps avg, 0.211 bit/pixel
Аудио: 48 kHz, Dolby Digital AC3 2.0, 192 kbps
Раздача от:
Общее
Полное имя : Port.1975.DVDRip_[New-team]_by_AVP_Studio.avi
Формат : AVI
Формат/Информация : Audio Video Interleave
Размер файла : 745 Мбайт
Продолжительность : 1 ч. 10 м.
Общий поток : 1480 Кбит/сек
Программа кодирования : VirtualDubMod 1.5.10.3 | www.virtualdub-fr.org || (build 2550/release)
Библиотека кодирования : VirtualDubMod build 2550/release
Видео
Идентификатор : 0
Формат : MPEG-4 Visual
Профиль формата : Advanced Simple@L5
Параметр BVOP формата : 1
Параметр QPel формата : Нет
Параметр GMC формата : Без точки перехода
Параметр матрицы формата : Выборочная
Идентификатор кодека : XVID
Идентификатор кодека/Подсказка : XviD
Продолжительность : 1 ч. 10 м.
Битрейт : 1278 Кбит/сек
Ширина : 688 пикселей
Высота : 352 пикселя
Соотношение сторон : 1,955
Частота кадров : 25,000 кадров/сек
Цветовое пространство : YUV
Субдискретизация насыщенности : 4:2:0
Битовая глубина : 8 бит
Тип развёртки : Прогрессивная
Метод сжатия : С потерями
Бит/(Пиксели*Кадры) : 0.211
Размер потока : 643 Мбайт (86%)
Библиотека кодирования : XviD 73
Аудио
Идентификатор : 1
Формат : AC-3
Формат/Информация : Audio Coding 3
Расширение режима : CM (complete main)
Параметр Endianness формата : Big
Идентификатор кодека : 2000
Продолжительность : 1 ч. 10 м.
Вид битрейта : Постоянный
Битрейт : 192 Кбит/сек
Каналы : 2 канала
Расположение каналов : Front: L R
Частота : 48,0 КГц
Метод сжатия : С потерями
Размер потока : 96,6 Мбайт (13%)
Выравнивание : Разделение по промежуткам
Продолжительность промежутка : 40 мс. (1,00 видеокадр)
Время предзагрузки промежутка : 500 мс





   Похожие торренты   Торрент   Размер 
В этой теме нет новых непрочитанных сообщений. Порт (1975) DVDRip-AVC от New-Team

24 | 7

744.62 МБ

В этой теме нет новых непрочитанных сообщений. Порт (1975) DVDRip от AndrewWhite

12 | 9

1.36 ГБ

В этой теме нет новых непрочитанных сообщений. Старший сын (1975) DVDRip-AVC от New-Team

54 | 31

2.19 ГБ

В этой теме нет новых непрочитанных сообщений. Это мы не проходили (1975) DVDRip от New-Team

545 | 31

1.45 ГБ

В этой теме нет новых непрочитанных сообщений. Старший сын (1975) DVDRip от New-Team

290 | 33

2.19 ГБ

В этой теме нет новых непрочитанных сообщений. Порт желаний / Port du desir (1955) DVDRip | L1

40 | 9

1.5 ГБ

В этой теме нет новых непрочитанных сообщений. Побег / Breakout (1975) DVDRip от New-Team

98 | 13

745.1 МБ




Вы не можете начинать темы
Вы не можете отвечать на сообщения
Вы не можете редактировать свои сообщения
Вы не можете удалять свои сообщения
Вы не можете добавлять вложения

Перейти:  
Для Мосгорсуда, Роскомнадзора и рекламодателей: mosgorsud-torrent[собачка]yandex.ru
 Вход
ppkBB3cker v.2 © 2008-2014 @ PPK
[ Time : 0.542s | 16 Queries | GZIP : On ]

Торрент трекер RUTOR.IN, Не можете зайти на rutor.org? Какой новый адрес рутор? Какое зеркало рутор? Не работает rutor.org и зеркала? Тогда наш торрент специально для вас. Rutor.in неофициальное зеркало rutor. В случае если у Вас заблокирован rutor или вдруг Вы не можете на него зайти, то Вы без труда сможете скачать бесплатно и без рекламы последние новинки кино, игр, сериалов и прочего у нас, на Rutor.in. Не нужно использовать прокси, чтобы зайти на рутор, достаточно воспользоваться нашим ресурсом. Все новые фильмы, игры, сериалы, книги и музыка за 2013 и 2014 годы через торрент бесплатно. Скачивайте фильмы в хорошем качестве, игры для пк, xbox, playstation без регистрации. У нас вы найдете новые Зарубежные сериалы и Русские сериалы 2013, 2014, 2015 годов. Оставайтесь с нами, качайте любимые фильмы, игры, сериалы, книги и музыку.