img image001 image001 image001 image001 image001 image001 image001 image001 image001 image001 image001 image001 image001 image001 image001

Planets Sun Sun Sun
Статистика раздачи
Автор: Nickolas3434 | Размер: 1.46 ГБ | Добавлен: 16 окт 2015
Раздают: 39    Качают: 3
Скачать торрент
Скачать торрент
Описание торрента

СообщениеДобавлено: 16 окт 2015 

Страна: СССР, Монголия, Германия (ГДР)
Производство: Мосфильм, Монголкино
Жанр: военный
Год выпуска: 1981
Продолжительность: 02:37:05 (01:16:55 + 01:20:10)
Перевод: Не требуется
Cубтитры: нет
Оригинальная аудиодорожка: русский
Режиссер: Василий Ордынский, Бадрахын Сумху
В ролях:
Александр Овчинников, Владимир Ивашов, Людмила Петрова, Леонид Неведомский, Андро Кобаладзе, Ч. Нэргуй, Ц. Тимурбатор, Лев Золотухин, Всеволод Ларионов, Вячеслав Езепов, Ахсарбек Бекмурзов, Евгений Лазарев, Андрей Мартынов, Олег Штефанко, Болот Бейшеналиев, Татьяна Ким, Байтен Омаров, Гомбожавын Гомбосурэн, Николай Пеньков, Роман Хомятов, Валерий Лущевский, Светлана Тормахова, Ирина Гошева, Валерий Погорельцев, Николай Сморчков, Николай Маликов, Д. Дэлэг, Ц. Дамдиндорж, Р. Лута, Л. Лхасурэн, С. Сарантуяа...
Полный список актёров
Описание:
О событиях завершающего этапа второй мировой войны - разгроме советскими и монгольскими войсками отборной Квантунской армии. В лаборатории японского генерала Исии Сиро создавалось бактериологическое оружие. Опыты проводились на военнопленных и политических заключенных. Врачу-эпидемиологу Дмитрию Соколову было поручено разгадать тайну этой лаборатории. Ценой собственной жизни он выполнил задание. Марш советских и монгольских соединений через пески Гоби и отроги Хингана был не только блестящей военной операцией, но и предупреждением применения Японией бактериологического оружия...





Источник: DVD9 R2 чешский трансфер
Качество видео: DVDRip
Формат видео: AVI
Видео: 704x272 (2,588:1), 25 fps, XviD ~ 1127 kbps avg, 0.235 bit/pixel
Аудио: 48 kHz, Dolby Digital AC3 2.0, 192 kbps
Раздача от:
Общее
Полное имя : Cherez.Gobi.i.Hingan.1981.DVDRip_[New-team]_by_AVP_Studio.avi
Формат : AVI
Формат/Информация : Audio Video Interleave
Размер файла : 731 Мбайт
Продолжительность : 1 ч. 16 м.
Общий поток : 1329 Кбит/сек
Программа кодирования : VirtualDubMod 1.5.10.3 | www.virtualdub-fr.org || (build 2550/release)
Библиотека кодирования : VirtualDubMod build 2550/release
Видео
Идентификатор : 0
Формат : MPEG-4 Visual
Профиль формата : Advanced Simple@L5
Параметр BVOP формата : 1
Параметр QPel формата : Нет
Параметр GMC формата : Без точки перехода
Параметр матрицы формата : Выборочная
Идентификатор кодека : XVID
Идентификатор кодека/Подсказка : XviD
Продолжительность : 1 ч. 16 м.
Битрейт : 1127 Кбит/сек
Ширина : 704 пикселя
Высота : 272 пикселя
Соотношение сторон : 2,588
Частота кадров : 25,000 кадров/сек
Цветовое пространство : YUV
Субдискретизация насыщенности : 4:2:0
Битовая глубина : 8 бит
Тип развёртки : Прогрессивная
Метод сжатия : С потерями
Бит/(Пиксели*Кадры) : 0.235
Размер потока : 620 Мбайт (85%)
Библиотека кодирования : XviD 73
Аудио
Идентификатор : 1
Формат : AC-3
Формат/Информация : Audio Coding 3
Расширение режима : CM (complete main)
Параметр Endianness формата : Big
Идентификатор кодека : 2000
Продолжительность : 1 ч. 16 м.
Вид битрейта : Постоянный
Битрейт : 192 Кбит/сек
Каналы : 2 канала
Расположение каналов : Front: L R
Частота : 48,0 КГц
Метод сжатия : С потерями
Размер потока : 106 Мбайт (14%)
Выравнивание : Разделение по промежуткам
Продолжительность промежутка : 40 мс. (1,00 видеокадр)
Время предзагрузки промежутка : 500 мс





   Похожие торренты   Торрент   Размер 
В этой теме нет новых непрочитанных сообщений. Через Гоби и Хинган (1981) DVDRip-AVC от New-Team

41 | 13

1.46 ГБ

В этой теме нет новых непрочитанных сообщений. Через Гоби и Хинган (1981) DVDRip

219 | 34

2.18 ГБ

В этой теме нет новых непрочитанных сообщений. Всё наоборот (1981) DVDRip от New-Team

15 | 5

744.87 МБ

В этой теме нет новых непрочитанных сообщений. Туз / Asso (1981) DVDRip от New-Team

17 | 3

1.46 ГБ

В этой теме нет новых непрочитанных сообщений. Туз / Asso (1981) DVDRip-AVC от New-Team

67 | 10

1.46 ГБ

В этой теме нет новых непрочитанных сообщений. Всё наоборот (1981) DVDRip-AVC от New-Team

17 | 2

744.64 МБ

В этой теме нет новых непрочитанных сообщений. Туз / Asso (1981) DVDRip от New-Team

7 | 4

744.03 МБ




Вы не можете начинать темы
Вы не можете отвечать на сообщения
Вы не можете редактировать свои сообщения
Вы не можете удалять свои сообщения
Вы не можете добавлять вложения

Перейти:  
Для Мосгорсуда, Роскомнадзора и рекламодателей: mosgorsud-torrent[собачка]yandex.ru
 Вход
ppkBB3cker v.2 © 2008-2014 @ PPK
[ Time : 0.061s | 15 Queries | GZIP : Off ]

Торрент трекер RUTOR.IN, Не можете зайти на rutor.org? Какой новый адрес рутор? Какое зеркало рутор? Не работает rutor.org и зеркала? Тогда наш торрент специально для вас. Rutor.in неофициальное зеркало rutor. В случае если у Вас заблокирован rutor или вдруг Вы не можете на него зайти, то Вы без труда сможете скачать бесплатно и без рекламы последние новинки кино, игр, сериалов и прочего у нас, на Rutor.in. Не нужно использовать прокси, чтобы зайти на рутор, достаточно воспользоваться нашим ресурсом. Все новые фильмы, игры, сериалы, книги и музыка за 2013 и 2014 годы через торрент бесплатно. Скачивайте фильмы в хорошем качестве, игры для пк, xbox, playstation без регистрации. У нас вы найдете новые Зарубежные сериалы и Русские сериалы 2013, 2014, 2015 годов. Оставайтесь с нами, качайте любимые фильмы, игры, сериалы, книги и музыку.