img image001 image001 image001 image001 image001 image001 image001 image001 image001 image001 image001 image001 image001 image001 image001

Planets Sun Sun Sun
Статистика раздачи
Автор: Nickolas3434 | Размер: 1.46 ГБ | Добавлен: 16 окт 2015
Раздают: 41    Качают: 13
Скачать торрент
Скачать торрент
Описание торрента

СообщениеДобавлено: 16 окт 2015 

Страна: СССР, Монголия, Германия (ГДР)
Производство: Мосфильм, Монголкино
Жанр: военный
Год выпуска: 1981
Продолжительность: 02:37:05 (01:16:55 + 01:20:10)
Перевод: Не требуется
Cубтитры: нет
Оригинальная аудиодорожка: русский
Режиссер: Василий Ордынский, Бадрахын Сумху
В ролях:
Александр Овчинников, Владимир Ивашов, Людмила Петрова, Леонид Неведомский, Андро Кобаладзе, Ч. Нэргуй, Ц. Тимурбатор, Лев Золотухин, Всеволод Ларионов, Вячеслав Езепов, Ахсарбек Бекмурзов, Евгений Лазарев, Андрей Мартынов, Олег Штефанко, Болот Бейшеналиев, Татьяна Ким, Байтен Омаров, Гомбожавын Гомбосурэн, Николай Пеньков, Роман Хомятов, Валерий Лущевский, Светлана Тормахова, Ирина Гошева, Валерий Погорельцев, Николай Сморчков, Николай Маликов, Д. Дэлэг, Ц. Дамдиндорж, Р. Лута, Л. Лхасурэн, С. Сарантуяа...
Полный список актёров
Описание:
О событиях завершающего этапа второй мировой войны - разгроме советскими и монгольскими войсками отборной Квантунской армии. В лаборатории японского генерала Исии Сиро создавалось бактериологическое оружие. Опыты проводились на военнопленных и политических заключенных. Врачу-эпидемиологу Дмитрию Соколову было поручено разгадать тайну этой лаборатории. Ценой собственной жизни он выполнил задание. Марш советских и монгольских соединений через пески Гоби и отроги Хингана был не только блестящей военной операцией, но и предупреждением применения Японией бактериологического оружия...





Источник: DVD9 R2 чешский трансфер
Качество видео: DVDRip-AVC
Формат видео: MKV
Видео: 704->1002x392 (2,554:1), 25 fps, H264 ~ 1135 kbps avg, 0.165 bit/pixel
Аудио: 48 kHz, Dolby Digital AC3 2.0, 192 kbps
Раздача от:
Общее
Полное имя : Cherez.Gobi.i.Hingan.1981.DVDRip-AVC_[New-team]_by_AVP_Studio.mkv
Формат : Matroska
Версия формата : Version 2
Размер файла : 731 Мбайт
Продолжительность : 1 ч. 16 м.
Общий поток : 1329 Кбит/сек
Дата кодирования : UTC 2015-10-12 13:09:29
Программа кодирования : mkvmerge v6.1.0 ('Old Devil') built on Mar 4 2013 09:10:42
Библиотека кодирования : libebml v1.3.0 + libmatroska v1.4.0
Видео
Идентификатор : 1
Формат : AVC
Формат/Информация : Advanced Video Codec
Профиль формата : High@L4.1
Параметр CABAC формата : Да
Параметр ReFrames формата : 10 кадров
Идентификатор кодека : V_MPEG4/ISO/AVC
Продолжительность : 1 ч. 16 м.
Битрейт : 1135 Кбит/сек
Ширина : 704 пикселя
Высота : 392 пикселя
Соотношение сторон : 2,554
Режим частоты кадров : Постоянный
Частота кадров : 25,000 кадров/сек
Цветовое пространство : YUV
Субдискретизация насыщенности : 4:2:0
Битовая глубина : 8 бит
Тип развёртки : Прогрессивная
Бит/(Пиксели*Кадры) : 0.165
Размер потока : 611 Мбайт (84%)
Библиотека кодирования : x264 core 148 r2597 e86f3a1
Настройки программы : cabac=1 / ref=10 / deblock=1:-2:-1 / analyse=0x3:0x113 / me=umh / subme=10 / psy=1 / psy_rd=1.00:0.00 / mixed_ref=1 / me_range=32 / chroma_me=1 / trellis=2 / 8x8dct=1 / cqm=0 / deadzone=21,11 / fast_pskip=1 / chroma_qp_offset=-2 / threads=6 / lookahead_threads=1 / sliced_threads=0 / nr=0 / decimate=0 / interlaced=0 / bluray_compat=0 / constrained_intra=0 / bframes=8 / b_pyramid=2 / b_adapt=2 / b_bias=0 / direct=3 / weightb=1 / open_gop=0 / weightp=2 / keyint=250 / keyint_min=25 / scenecut=40 / intra_refresh=0 / rc=2pass / mbtree=0 / bitrate=1135 / ratetol=1.0 / qcomp=0.60 / qpmin=0 / qpmax=69 / qpstep=4 / cplxblur=20.0 / qblur=0.5 / ip_ratio=1.40 / pb_ratio=1.30 / aq=1:1.00
Default : Да
Forced : Нет
Аудио
Идентификатор : 2
Формат : AC-3
Формат/Информация : Audio Coding 3
Расширение режима : CM (complete main)
Параметр Endianness формата : Big
Идентификатор кодека : A_AC3
Продолжительность : 1 ч. 16 м.
Вид битрейта : Постоянный
Битрейт : 192 Кбит/сек
Каналы : 2 канала
Расположение каналов : Front: L R
Частота : 48,0 КГц
Метод сжатия : С потерями
Размер потока : 106 Мбайт (14%)
Default : Да
Forced : Нет





   Похожие торренты   Торрент   Размер 
В этой теме нет новых непрочитанных сообщений. Через Гоби и Хинган (1981) DVDRip от New-Team

39 | 3

1.46 ГБ

В этой теме нет новых непрочитанных сообщений. Через Гоби и Хинган (1981) DVDRip

219 | 34

2.18 ГБ

В этой теме нет новых непрочитанных сообщений. Всё наоборот (1981) DVDRip-AVC от New-Team

17 | 2

744.64 МБ

В этой теме нет новых непрочитанных сообщений. Шестой (1981) DVDRip от New-Team

99 | 15

744.52 МБ

В этой теме нет новых непрочитанных сообщений. Туз / Asso (1981) DVDRip от New-Team

17 | 3

1.46 ГБ

В этой теме нет новых непрочитанных сообщений. Всё наоборот (1981) DVDRip от New-Team

15 | 5

744.87 МБ

В этой теме нет новых непрочитанных сообщений. Шестой (1981) DVDRip от New-Team

173 | 8

1.46 ГБ




Вы не можете начинать темы
Вы не можете отвечать на сообщения
Вы не можете редактировать свои сообщения
Вы не можете удалять свои сообщения
Вы не можете добавлять вложения

Перейти:  
Для Мосгорсуда, Роскомнадзора и рекламодателей: mosgorsud-torrent[собачка]yandex.ru
 Вход
ppkBB3cker v.2 © 2008-2014 @ PPK
[ Time : 0.050s | 16 Queries | GZIP : Off ]

Торрент трекер RUTOR.IN, Не можете зайти на rutor.org? Какой новый адрес рутор? Какое зеркало рутор? Не работает rutor.org и зеркала? Тогда наш торрент специально для вас. Rutor.in неофициальное зеркало rutor. В случае если у Вас заблокирован rutor или вдруг Вы не можете на него зайти, то Вы без труда сможете скачать бесплатно и без рекламы последние новинки кино, игр, сериалов и прочего у нас, на Rutor.in. Не нужно использовать прокси, чтобы зайти на рутор, достаточно воспользоваться нашим ресурсом. Все новые фильмы, игры, сериалы, книги и музыка за 2013 и 2014 годы через торрент бесплатно. Скачивайте фильмы в хорошем качестве, игры для пк, xbox, playstation без регистрации. У нас вы найдете новые Зарубежные сериалы и Русские сериалы 2013, 2014, 2015 годов. Оставайтесь с нами, качайте любимые фильмы, игры, сериалы, книги и музыку.
cron