img image001 image001 image001 image001 image001 image001 image001 image001 image001 image001 image001 image001 image001 image001 image001

Planets Sun Sun Sun
Статистика раздачи
Автор: Nickolas3434 | Размер: 743.76 МБ | Добавлен: 15 окт 2015
Раздают: 31    Качают: 4
Скачать торрент
Скачать торрент
Описание торрента

СообщениеДобавлено: 15 окт 2015 


Информация о фильме
Название: Тише!
Год выхода: 2003
Жанр: Документальный
Режиссер: Виктор Косаковский
В ролях: Народ
О фильме:
Фильм снят из окна питерской квартиры в год подготовки к 300-летнему юбилею Санкт-Петербурга.

Страна: Россия
Продолжительность: 01:19:33
Перевод: Не требуется
Файл
Кодек: XviD
Качество: DVDRip
Видео: 512x384 (1.33:1), 25 fps, XviD build 73 ~1169 kbps avg, 0.24 bit/pixel
Звук: 48 kHz, MPEG Layer 3, 2 ch, ~128.00 kbps avg
Субтитры: Отсутствует
Семпл
General
Complete name : D:ТоррентыМои рипыТишеtishe_by shkiper.avi
Format : AVI
Format/Info : Audio Video Interleave
File size : 744 MiB
Duration : 1h 19mn
Overall bit rate : 1 307 Kbps
Writing application : VirtualDubMod 1.5.10.3 | www.virtualdub-fr.org || (build 2550/release)
Writing library : VirtualDubMod build 2550/release
Video
ID : 0
Format : MPEG-4 Visual
Format profile : Advanced Simple@L5
Format settings, BVOP : 1
Format settings, QPel : No
Format settings, GMC : No warppoints
Format settings, Matrix : Custom
Codec ID : XVID
Codec ID/Hint : XviD
Duration : 1h 19mn
Bit rate : 1 169 Kbps
Width : 512 pixels
Height : 384 pixels
Display aspect ratio : 4:3
Frame rate : 25.000 fps
Color space : YUV
Chroma subsampling : 4:2:0
Bit depth : 8 bits
Scan type : Progressive
Compression mode : Lossy
Bits/(Pixel*Frame) : 0.238
Stream size : 665 MiB (89%)
Writing library : XviD 73
Audio
ID : 1
Format : MPEG Audio
Format version : Version 1
Format profile : Layer 3
Mode : Joint stereo
Mode extension : MS Stereo
Codec ID : 55
Codec ID/Hint : MP3
Duration : 1h 19mn
Bit rate mode : Constant
Bit rate : 128 Kbps
Channel(s) : 2 channels
Sampling rate : 48.0 KHz
Compression mode : Lossy
Stream size : 72.8 MiB (10%)
Alignment : Aligned on interleaves
Interleave, duration : 40 ms (1.00 video frame)
Interleave, preload duratio : 504 ms
Writing library : LAME3.99r
Encoding settings : -m j -V 4 -q 2 -lowpass 17 -b 128

Релиз от:



   Похожие торренты   Торрент   Размер 
В этой теме нет новых непрочитанных сообщений. Тише... тише, милая Шарлотта / Hush...Hush, Sweet Charlotte (1964) DVDRip от egoleshik | P

23 | 6

2.04 ГБ

В этой теме нет новых непрочитанных сообщений. Тише! (2003) DVD5

8 | 0

4.09 ГБ

В этой теме нет новых непрочитанных сообщений. Возвращение (2003) HDRip от Шкипер

21 | 8

746.63 МБ

В этой теме нет новых непрочитанных сообщений. Сделай тише - Casual (2015) MP3

186 | 9

80.43 МБ

В этой теме нет новых непрочитанных сообщений. Вертикаль (1966) DVDRip от Шкипер

29 | 2

743.49 МБ

В этой теме нет новых непрочитанных сообщений. Снегурочка (1968) DVDRip от Шкипер

139 | 8

744.4 МБ

В этой теме нет новых непрочитанных сообщений. Делай - раз! (1989) DVDRip от Шкипер

31 | 2

744.29 МБ




Вы не можете начинать темы
Вы не можете отвечать на сообщения
Вы не можете редактировать свои сообщения
Вы не можете удалять свои сообщения
Вы не можете добавлять вложения

Перейти:  
Для Мосгорсуда, Роскомнадзора и рекламодателей: mosgorsud-torrent[собачка]yandex.ru
 Вход
ppkBB3cker v.2 © 2008-2014 @ PPK
[ Time : 0.037s | 17 Queries | GZIP : Off ]

cron