img image001 image001 image001 image001 image001 image001 image001 image001 image001 image001 image001 image001 image001 image001 image001

Planets Sun Sun Sun
Статистика раздачи
Автор: Nickolas3434 | Размер: 2.78 ГБ | Добавлен: 15 окт 2015
Раздают: 7266    Качают: 259
Скачать торрент
Скачать торрент
Описание торрента

СообщениеДобавлено: 15 окт 2015 


Информация о фильме
Название: Пиковая дама: Черный обряд
Год выхода: 2015
Жанр: ужасы
Режиссер: Святослав Подгаевский
В ролях: Алина Бабак, Игорь Хрипунов, Владимир Селезнев, Валерия Дмитриева, Сергей Походаев, Евгения Лоза, Валентин Садики, Мария Фомина, Максим Стоянов, Наталья Домерецкая
О фильме: С древних времен считается, что любое зеркало может стать порталом в мир мертвых. Одним из старейших мистических ритуалов с зеркалом является обряд вызова Пиковой Дамы. Четверо подростков в шутку решают призвать ее, но даже не подозревают, на какие ужасы они обрекли себя и своих близких. Теперь мстительный призрак не остановится, пока не получит их души.

Выпущено: Россия
Продолжительность: 01:32:50
Озвучивание: Оригинальное [iTunes]
Файл
Формат: MKV
Качество: WEB-DL 720p
Видео: MPEG-4 AVC, 3820 kb/s, 1280x720
Аудио: AC3, 384 kb/s (6 ch)
Format : Matroska
Format version : Version 4 / Version 2
File size : 2.78 GiB
Duration : 1h 32mn
Overall bit rate : 4 290 Kbps
Encoded date : UTC 2015-10-14 18:18:53
Writing application : mkvmerge v8.3.0 ('Over the Horizon') 64bit
Writing library : libebml v1.3.1 + libmatroska v1.4.2
DURATION : 01:32:50.944000000
NUMBER_OF_FRAMES : 174092
NUMBER_OF_BYTES : 267405312
_STATISTICS_WRITING_APP : mkvmerge v8.3.0 ('Over the Horizon') 64bit
_STATISTICS_WRITING_DATE_UTC : 2015-10-14 18:18:53
_STATISTICS_TAGS : BPS DURATION NUMBER_OF_FRAMES NUMBER_OF_BYTES
Video
ID : 1
Format : AVC
Format/Info : Advanced Video Codec
Format profile : High@L3.1
Format settings, CABAC : No
Format settings, ReFrames : 2 frames
Codec ID : V_MPEG4/ISO/AVC
Duration : 1h 32mn
Bit rate : 3 820 Kbps
Width : 1 280 pixels
Height : 720 pixels
Display aspect ratio : 16:9
Frame rate mode : Constant
Frame rate : 24.000 fps
Color space : YUV
Chroma subsampling : 4:2:0
Bit depth : 8 bits
Scan type : Progressive
Bits/(Pixel*Frame) : 0.173
Stream size : 2.48 GiB (89%)
Language : English
Default : Yes
Forced : No
Color range : Limited
Color primaries : BT.709
Transfer characteristics : BT.709
Matrix coefficients : BT.709
Audio
ID : 2
Format : AC-3
Format/Info : Audio Coding 3
Mode extension : CM (complete main)
Format settings, Endianness : Big
Codec ID : A_AC3
Duration : 1h 32mn
Bit rate mode : Constant
Bit rate : 384 Kbps
Channel(s) : 6 channels
Channel positions : Front: L C R, Side: L R, LFE
Sampling rate : 48.0 KHz
Bit depth : 16 bits
Compression mode : Lossy
Stream size : 255 MiB (9%)
Language : Russian
Default : Yes
Forced : No
Menu
00:00:00.000 : en:Глава 1
00:05:31.000 : en:Глава 2
00:10:55.000 : en:Глава 3
00:16:23.000 : en:Глава 4
00:21:30.000 : en:Глава 5
00:26:59.000 : en:Глава 6
00:32:14.000 : en:Глава 7
00:37:45.000 : en:Глава 8
00:44:11.000 : en:Глава 9
00:50:48.000 : en:Глава 10
00:56:36.000 : en:Глава 11
01:02:21.000 : en:Глава 12
01:07:45.000 : en:Глава 13
01:12:59.000 : en:Глава 14
01:18:30.000 : en:Глава 15
01:22:33.000 : en:Глава 16
01:27:18.000 : en:Глава 17



   Похожие торренты   Торрент   Размер 
В этой теме нет новых непрочитанных сообщений. Пиковая дама: Черный обряд (2015) WEB-DL 1080p | iTunes

1141 | 54

3.52 ГБ

В этой теме нет новых непрочитанных сообщений. Пиковая дама: Черный обряд (2015) WEB-DL 1080p | iTunes

3995 | 132

3.52 ГБ

В этой теме нет новых непрочитанных сообщений. Пиковая дама: Черный обряд (2015) WEB-DLRip-AVC | iTunes

1480 | 49

1.45 ГБ

В этой теме нет новых непрочитанных сообщений. Пиковая дама: Черный обряд (2015) WEB-DLRip | iTunes

18877 | 671

1.37 ГБ

В этой теме нет новых непрочитанных сообщений. Пиковая дама: Черный обряд (2015) WEB-DLRip от Scarabey | iTunes

1187 | 77

1.38 ГБ

В этой теме нет новых непрочитанных сообщений. Пиковая дама: Черный обряд (2015) BDRip 720p от HELLYWOOD | Лицензия

15 | 0

3.82 ГБ

В этой теме нет новых непрочитанных сообщений. Пиковая дама: Черный обряд (2015) BDRip 720p от ExKinoRay | Лицензия

12 | 0

2.57 ГБ




Вы не можете начинать темы
Вы не можете отвечать на сообщения
Вы не можете редактировать свои сообщения
Вы не можете удалять свои сообщения
Вы не можете добавлять вложения

Перейти:  
Для Мосгорсуда, Роскомнадзора и рекламодателей: mosgorsud-torrent[собачка]yandex.ru
 Вход
ppkBB3cker v.2 © 2008-2014 @ PPK
[ Time : 0.048s | 17 Queries | GZIP : Off ]

cron