img image001 image001 image001 image001 image001 image001 image001 image001 image001 image001 image001 image001 image001 image001 image001

Planets Sun Sun Sun
Статистика раздачи
Автор: Nickolas3434 | Размер: 730.32 МБ | Добавлен: 15 окт 2015
Раздают: 246    Качают: 8
Скачать торрент
Скачать торрент
Описание торрента

СообщениеДобавлено: 15 окт 2015 


Информация о фильме
Название: Вычислитель
Год выхода: 2014
Жанр: Фантастика
Режиссер: Дмитрий Грачев
В ролях: Евгений Миронов (Эрвин Канн), Анна Чиповская (Кристи), Винни Джонс (Юст Ван Борг), Никита Панфилов (Матиас), Кирилл Козаков (капитан), Иван Верховых (Джоб), Владас Багдонас (Ян), Ирене Мускара (Мария), Линда Нигматулина (Лейла), Алексей Колубков (Валентин), Петр Скворцов (Хаймэ), Анна Попова (Анна)
О фильме:
Десять заключенных, приговоренных к пожизненному изгнанию с планеты XT-59, отправляются в опасный путь через Саргассово Болото. Группа сразу делится на две части: Эрвин и Кристи идут на поиск Счастливых Островов, Юст ведет остальных к Гнилой Мели. Однако долгое время их маршруты практически совпадают. В первый же вечер Эрвин понимает, что его должны убить - в прошлой жизни он занимал слишком высокий пост, и теперь он опасен для тех, кто пришел к власти. Выбрав в попутчицы Кристи, он сразу старается уйти подальше от остальных членов группы, чтобы обезопасить себя. На пути к Счастливым островам герои преодолевают массу препятствий. Цена этому - свобода и счастье.

Страна: Россия
Студия: Art Pictures Studio, ВГТРК
Продолжительность: 01:23:12
Перевод: Не требуется | Лицензия [Blu-Ray]
Файл
Кодек: XviD
Качество: HDRip
Видео: 608x256 (2.38:1), 25 fps, XviD build 73 ~1089 kbps avg, 0.28 bit/pixel
Звук: 48 kHz, MPEG Layer 3, 2 ch, ~128.00 kbps avg
Субтитры: Отсутствует
Семпл
General
Complete name : D:Изготовление риповVychislitel'.2014.RUS.HDRip ot shkiper.avi
Format : AVI
Format/Info : Audio Video Interleave
File size : 730 MiB
Duration : 1h 23mn
Overall bit rate : 1 227 Kbps
Writing application : VirtualDubMod 1.5.10.3 | www.virtualdub-fr.org || (build 2550/release)
Writing library : VirtualDubMod build 2550/release
Video
ID : 0
Format : MPEG-4 Visual
Format profile : Advanced Simple@L5
Format settings, BVOP : 1
Format settings, QPel : No
Format settings, GMC : No warppoints
Format settings, Matrix : Custom
Codec ID : XVID
Codec ID/Hint : XviD
Duration : 1h 23mn
Bit rate : 1 089 Kbps
Width : 608 pixels
Height : 256 pixels
Display aspect ratio : 2.40:1
Frame rate : 25.000 fps
Color space : YUV
Chroma subsampling : 4:2:0
Bit depth : 8 bits
Scan type : Progressive
Compression mode : Lossy
Bits/(Pixel*Frame) : 0.280
Stream size : 648 MiB (89%)
Writing library : XviD 73
Audio
ID : 1
Format : MPEG Audio
Format version : Version 1
Format profile : Layer 3
Mode : Joint stereo
Mode extension : MS Stereo
Codec ID : 55
Codec ID/Hint : MP3
Duration : 1h 23mn
Bit rate mode : Constant
Bit rate : 128 Kbps
Channel(s) : 2 channels
Sampling rate : 48.0 KHz
Compression mode : Lossy
Stream size : 76.2 MiB (10%)
Alignment : Aligned on interleaves
Interleave, duration : 40 ms (1.00 video frame)
Interleave, preload duratio : 504 ms
Writing library : LAME3.99r
Encoding settings : -m j -V 4 -q 2 -lowpass 17 -b 128

Релиз от:



   Похожие торренты   Торрент   Размер 
В этой теме нет новых непрочитанных сообщений. Вычислитель (2014) HDRip | iTunes

493 | 29

1.37 ГБ

В этой теме нет новых непрочитанных сообщений. Район 37 / Outpost 37 (2014) HDRip от Шкипер

226 | 10

744.84 МБ

В этой теме нет новых непрочитанных сообщений. На грани / Lev stærkt (2014) HDRip от Шкипер

99 | 15

745.35 МБ

В этой теме нет новых непрочитанных сообщений. Легок на помине (2014) HDRip от Шкипер

80 | 30

743.97 МБ

В этой теме нет новых непрочитанных сообщений. Пока мы молоды / While we're young (2014) HDRip от Шкипер

244 | 9

745.54 МБ

В этой теме нет новых непрочитанных сообщений. Ни минуты покоя / Une heure de tranquillité (2014) HDRip от Шкипер

203 | 26

745.32 МБ

В этой теме нет новых непрочитанных сообщений. Вычислитель (2014) WEBRip

9240 | 333

1.37 ГБ




Вы не можете начинать темы
Вы не можете отвечать на сообщения
Вы не можете редактировать свои сообщения
Вы не можете удалять свои сообщения
Вы не можете добавлять вложения

Перейти:  
Для Мосгорсуда, Роскомнадзора и рекламодателей: mosgorsud-torrent[собачка]yandex.ru
 Вход
ppkBB3cker v.2 © 2008-2014 @ PPK
[ Time : 0.021s | 14 Queries | GZIP : Off ]
CGP output time : 0.016s | 5 Queries | GZIP : Off

Торрент трекер RUTOR.IN, Не можете зайти на rutor.org? Какой новый адрес рутор? Какое зеркало рутор? Не работает rutor.org и зеркала? Тогда наш торрент специально для вас. Rutor.in неофициальное зеркало rutor. В случае если у Вас заблокирован rutor или вдруг Вы не можете на него зайти, то Вы без труда сможете скачать бесплатно и без рекламы последние новинки кино, игр, сериалов и прочего у нас, на Rutor.in. Не нужно использовать прокси, чтобы зайти на рутор, достаточно воспользоваться нашим ресурсом. Все новые фильмы, игры, сериалы, книги и музыка за 2013 и 2014 годы через торрент бесплатно. Скачивайте фильмы в хорошем качестве, игры для пк, xbox, playstation без регистрации. У нас вы найдете новые Зарубежные сериалы и Русские сериалы 2013, 2014, 2015 годов. Оставайтесь с нами, качайте любимые фильмы, игры, сериалы, книги и музыку.