img image001 image001 image001 image001 image001 image001 image001 image001 image001 image001 image001 image001 image001 image001 image001 image001

Planets Sun Sun Sun
Статистика раздачи
Автор: Nickolas3434 | Размер: 2.42 ГБ | Добавлен: 17 окт 2015
Раздают: 256    Качают: 48
Скачать торрент
Скачать торрент
Описание торрента

СообщениеДобавлено: 17 окт 2015 


Год выпуска: 2013
Выпущено: Россия, Дирекция Кино, Про-Синема продакшн
Жанр: Комедия, приключения, экранизация
Продолжительность: 01:28:44
Перевод: Не требуется
Cубтитры: Нет
Режиссёр: Михаил Хлебородов
В ролях: Евгений Ткачук, Елизавета Боярская, Гоша Куценко, Дмитрий Дюжев, Игорь Скляр, Дмитрий Нагиев, Артем Ткаченко, Екатерина Климова, Екатерина Федулова, Олег Тактаров
Описание: Егор Глазунов работает в криминальной полиции столицы и обладает удивительным даром — «врать с листа». Это умение очень выручает его в далёком маленьком городе, которых на карте России великое множество. Сюда Глазунов отправляется помочь другу детства Артёму — обычному курьеру с необычными принципами, у которого угнали доставшийся ему по странному стечению обстоятельств «Мерседес». Все следы ведут к местному авторитету, подобраться к которому невозможно. Последний шанс — прийти с «проверкой» из «следственного комитета». Сюжет гоголевского «Ревизора» превращается в историю новой России.

Качество: HDTVRip (720p)
Формат: MKV
Видео: MPEG-4 AVC, 3520 Кбит/с, 1280x720, 25 кадр/с
Аудио: Русский, Dolby AC3, 48000 Гц, 384 Кбит/с, 6 каналов (5.1)
General
Unique ID : 253635781723100493830044068882577089841 (0xBED07985DD4849A3B745A20A17FFE531)
Complete name : Kur'er.iz.Raya.2013.HDTVRip.720p.mkv
Format : Matroska
File size : 2.42 GiB
Duration : 1h 28mn
Overall bit rate : 3 902 Kbps
Encoded date : UTC 2015-10-16 06:47:26
Writing application : mkvmerge v6.1.0 ('Old Devil') built on Mar 4 2013 09:10:42
Writing library : libebml v1.3.0 + libmatroska v1.4.0
Video
ID : 1
Format : AVC
Format/Info : Advanced Video Codec
Format profile : High@L4.1
Format settings, CABAC : Yes
Format settings, ReFrames : 5 frames
Codec ID : V_MPEG4/ISO/AVC
Duration : 1h 28mn
Bit rate : 3 520 Kbps
Width : 1 280 pixels
Height : 720 pixels
Display aspect ratio : 16:9
Frame rate : 25.000 fps
Color space : YUV
Chroma subsampling : 4:2:0
Bit depth : 8 bits
Scan type : Progressive
Bits/(Pixel*Frame) : 0.153
Stream size : 2.13 GiB (88%)
Writing library : x264 core 130 r2273 b3065e6
Encoding settings : cabac=1 / ref=5 / deblock=1:-1:-1 / analyse=0x3:0x133 / me=umh / subme=9 / psy=1 / psy_rd=1.00:0.20 / mixed_ref=1 / me_range=32 / chroma_me=1 / trellis=2 / 8x8dct=1 / cqm=0 / deadzone=21,11 / fast_pskip=0 / chroma_qp_offset=-3 / threads=6 / lookahead_threads=1 / sliced_threads=0 / nr=0 / decimate=0 / interlaced=0 / bluray_compat=0 / constrained_intra=0 / bframes=3 / b_pyramid=2 / b_adapt=2 / b_bias=0 / direct=3 / weightb=1 / open_gop=0 / weightp=2 / keyint=250 / keyint_min=25 / scenecut=40 / intra_refresh=0 / rc_lookahead=50 / rc=2pass / mbtree=1 / bitrate=3520 / ratetol=1.0 / qcomp=0.60 / qpmin=0 / qpmax=69 / qpstep=4 / cplxblur=20.0 / qblur=0.5 / ip_ratio=1.40 / aq=1:1.00
Audio
ID : 2
Format : AC-3
Format/Info : Audio Coding 3
Mode extension : CM (complete main)
Codec ID : A_AC3
Duration : 1h 28mn
Bit rate mode : Constant
Bit rate : 384 Kbps
Channel(s) : 6 channels
Channel positions : Front: L C R, Side: L R, LFE
Sampling rate : 48.0 KHz
Bit depth : 16 bits
Compression mode : Lossy
Stream size : 244 MiB (10%)


Автор рипа - ivandubskoj



   Похожие торренты   Торрент   Размер 
В этой теме нет новых непрочитанных сообщений. Шутки ангела (2013) HDTVRip 720p от ivandubskoj

121 | 6

2.44 ГБ

В этой теме нет новых непрочитанных сообщений. Курьер (1986) BDRip 720p

35 | 10

4.37 ГБ

В этой теме нет новых непрочитанных сообщений. Везучая (2013) HDTVRip от ivandubskoj

242 | 12

720.97 МБ

В этой теме нет новых непрочитанных сообщений. Курьер / The Courier (2011) BDRip 720p | L1

15 | 4

2.58 ГБ

В этой теме нет новых непрочитанных сообщений. Берега любви (2013) HDTVRip от ivandubskoj

145 | 16

744.73 МБ

В этой теме нет новых непрочитанных сообщений. Ты будешь моей (2013) HDTVRip от ivandubskoj

284 | 16

1.46 ГБ

В этой теме нет новых непрочитанных сообщений. Мой белый и пушистый (2013) HDTVRip от ivandubskoj

209 | 143

745.99 МБ




Вы не можете начинать темы
Вы не можете отвечать на сообщения
Вы не можете редактировать свои сообщения
Вы не можете удалять свои сообщения
Вы не можете добавлять вложения

Перейти:  
 Вход
ppkBB3cker v.2 © 2008-2014 @ PPK
[ Time : 0.325s | 15 Queries | GZIP : Off ]

cron