img image001 image001 image001 image001 image001 image001 image001 image001 image001 image001 image001 image001 image001 image001 image001

Planets Sun Sun Sun
Статистика раздачи
Автор: Nickolas3434 | Размер: 745.54 МБ | Добавлен: 18 окт 2015
Раздают: 89    Качают: 13
Скачать торрент
Скачать торрент
Описание торрента

СообщениеДобавлено: 18 окт 2015 

Страна: СССР
Производство: Литовская к/ст
Жанр: драма, приключения, военный
Год выпуска: 1987
Продолжительность: 01:32:53
Перевод: Не требуется
Cубтитры: нет
Оригинальная аудиодорожка: русский
Режиссер: Альмантас Грикявичюс, Автандил Квирикашвили, Витаутас Жалакявичюс
В ролях:
Владимир Богин, Видас Петкявичюс, Витаутас Паукште, Ингеборга Дапкунайте, Юозас Будрайтис, Улдис Ваздикс, Альгирдас Паулавичюс, Саулюс Баландис, Ирена Куксенайте, Эдгарас Савицкис...
Полный список актёров
Описание:
Летом 1944 года двое советских военнопленных – литовец и русский – совершают побег из концлагеря. Спасаясь от погони, они оказываются в зоне отдыха эсэсовцев на приморском пляже. Литовец прекрасно говорит по-немецки, русский же знает лишь несколько фраз. Здесь, под страшной угрозой быть разоблаченными им придется провести целый день…





Источник: DVD5 R5
Качество видео: DVDRip
Формат видео: AVI
Видео: 576x432 (4:3), 25 fps, XviD ~ 985 kbps avg, 0.158 bit/pixel
Аудио: 48 kHz, MP3 2.0, 128 kbps
Раздача от:
Общее
Полное имя : Voskresnyy.den.v.adu.1987.DVDRip-745_[New-team]_by_AVP_Studio.avi
Формат : AVI
Формат/Информация : Audio Video Interleave
Размер файла : 746 Мбайт
Продолжительность : 1 ч. 32 м.
Общий поток : 1122 Кбит/сек
Программа кодирования : VirtualDubMod 1.5.10.3 | www.virtualdub-fr.org || (build 2550/release)
Библиотека кодирования : VirtualDubMod build 2550/release
Видео
Идентификатор : 0
Формат : MPEG-4 Visual
Профиль формата : Advanced Simple@L5
Параметр BVOP формата : 1
Параметр QPel формата : Нет
Параметр GMC формата : Без точки перехода
Параметр матрицы формата : Выборочная
Идентификатор кодека : XVID
Идентификатор кодека/Подсказка : XviD
Продолжительность : 1 ч. 32 м.
Битрейт : 985 Кбит/сек
Ширина : 576 пикселей
Высота : 432 пикселя
Соотношение сторон : 4:3
Частота кадров : 25,000 кадров/сек
Цветовое пространство : YUV
Субдискретизация насыщенности : 4:2:0
Битовая глубина : 8 бит
Тип развёртки : Прогрессивная
Метод сжатия : С потерями
Бит/(Пиксели*Кадры) : 0.158
Размер потока : 654 Мбайт (88%)
Библиотека кодирования : XviD 73
Аудио
Идентификатор : 1
Формат : MPEG Audio
Версия формата : Version 1
Профиль формата : Layer 3
Идентификатор кодека : 55
Идентификатор кодека/Подсказка : MP3
Продолжительность : 1 ч. 32 м.
Вид битрейта : Постоянный
Битрейт : 128 Кбит/сек
Каналы : 2 канала
Частота : 48 kHz
Метод сжатия : С потерями
Размер потока : 85,0 Мбайт (11%)
Выравнивание : Разделение по промежуткам
Продолжительность промежутка : 40 мс. (1,00 видеокадр)
Время предзагрузки промежутка : 500 мс.
Библиотека кодирования : LAME3.99r
Настройки программы : -m s -V 4 -q 2 -lowpass 17 -b 128





   Похожие торренты   Торрент   Размер 
В этой теме нет новых непрочитанных сообщений. Воскресный день в аду (1987) DVDRip-AVC от New-Team

58 | 7

1.46 ГБ

В этой теме нет новых непрочитанных сообщений. Воскресный день в аду (1987) DVDRip от New-Team

239 | 15

1.46 ГБ

В этой теме нет новых непрочитанных сообщений. Мио, мой Мио / Mio, moy Mio (1987) DVDRip от New-Team

32 | 4

1.46 ГБ

В этой теме нет новых непрочитанных сообщений. Мио, мой Мио / Mio, moy Mio (1987) DVDRip от New-Team

13 | 7

745 МБ

В этой теме нет новых непрочитанных сообщений. Мио, мой Мио / Mio, moy Mio (1987) DVDRip-AVC от New-Team

254 | 13

1.46 ГБ

В этой теме нет новых непрочитанных сообщений. Забытая мелодия для флейты (1987) DVDRip от New-Team

102 | 36

1.46 ГБ

В этой теме нет новых непрочитанных сообщений. Даниил - князь Галицкий (1987) DVDRip от New-Team

55 | 12

745.02 МБ




Вы не можете начинать темы
Вы не можете отвечать на сообщения
Вы не можете редактировать свои сообщения
Вы не можете удалять свои сообщения
Вы не можете добавлять вложения

Перейти:  
Для Мосгорсуда, Роскомнадзора и рекламодателей: mosgorsud-torrent[собачка]yandex.ru
 Вход
ppkBB3cker v.2 © 2008-2014 @ PPK
[ Time : 0.048s | 16 Queries | GZIP : Off ]

Торрент трекер RUTOR.IN, Не можете зайти на rutor.org? Какой новый адрес рутор? Какое зеркало рутор? Не работает rutor.org и зеркала? Тогда наш торрент специально для вас. Rutor.in неофициальное зеркало rutor. В случае если у Вас заблокирован rutor или вдруг Вы не можете на него зайти, то Вы без труда сможете скачать бесплатно и без рекламы последние новинки кино, игр, сериалов и прочего у нас, на Rutor.in. Не нужно использовать прокси, чтобы зайти на рутор, достаточно воспользоваться нашим ресурсом. Все новые фильмы, игры, сериалы, книги и музыка за 2013 и 2014 годы через торрент бесплатно. Скачивайте фильмы в хорошем качестве, игры для пк, xbox, playstation без регистрации. У нас вы найдете новые Зарубежные сериалы и Русские сериалы 2013, 2014, 2015 годов. Оставайтесь с нами, качайте любимые фильмы, игры, сериалы, книги и музыку.