img image001 image001 image001 image001 image001 image001 image001 image001 image001 image001 image001 image001 image001 image001 image001

Planets Sun Sun Sun
Статистика раздачи
Автор: Nickolas3434 | Размер: 743.79 МБ | Добавлен: 17 окт 2015
Раздают: 15    Качают: 14
Скачать торрент
Скачать торрент
Описание торрента

СообщениеДобавлено: 17 окт 2015 

Страна: СССР
Производство: Беларусьфильм
Жанр: драма, военный
Год выпуска: 1989
Продолжительность: 01:16:56
Перевод: Не требуется
Cубтитры: нет
Оригинальная аудиодорожка: русский
Режиссер: Александр Мороз
В ролях:
Александр Кукареко, Владимир Грицевский, Владимир Бобриков, Петр Солдатов, Александр Маевский, Леонид Дьячков, Эдуард Мурашов, Алла Ельяшевич, Игнат Бутько, Фелиция Бутько, Татьяна Харламова, Жанна Лейко...
Полный список актёров
Описание:
Повесть военных лет.
По одноименной повести Василя Быкова.
Четверо солдат получили задание взорвать не имеющий стратегического значения мост. Приказ непонятен и тем не менее, не возражая начальству, герои отправляются в путь...





Источник: DVB
Качество видео: SATRip
Формат видео: AVI
Видео: 640x480 (4:3), 25 fps, XviD ~ 1214 kbps avg, 0.158 bit/pixel
Аудио: 48 kHz, MP3 2.0, 128 kbps
Раздача от:
Общее
Полное имя : Kruglyanskiy.most.1989.SATRip-745_[New-team]_by_AVP_Studio.avi
Формат : AVI
Формат/Информация : Audio Video Interleave
Размер файла : 744 Мбайт
Продолжительность : 1 ч. 16 м.
Общий поток : 1352 Кбит/сек
Программа кодирования : VirtualDubModRus 1.5.10.2 (build 2542/release)
Библиотека кодирования : VirtualDubMod build 2542/release
Видео
Идентификатор : 0
Формат : MPEG-4 Visual
Профиль формата : Advanced Simple@L5
Параметр BVOP формата : 1
Параметр QPel формата : Нет
Параметр GMC формата : Без точки перехода
Параметр матрицы формата : Выборочная
Идентификатор кодека : XVID
Идентификатор кодека/Подсказка : XviD
Продолжительность : 1 ч. 16 м.
Битрейт : 1214 Кбит/сек
Ширина : 640 пикселей
Высота : 480 пикселей
Соотношение сторон : 4:3
Частота кадров : 25,000 кадров/сек
Цветовое пространство : YUV
Субдискретизация насыщенности : 4:2:0
Битовая глубина : 8 бит
Тип развёртки : Прогрессивная
Метод сжатия : С потерями
Бит/(Пиксели*Кадры) : 0.158
Размер потока : 668 Мбайт (90%)
Библиотека кодирования : XviD 73
Аудио
Идентификатор : 1
Формат : MPEG Audio
Версия формата : Version 1
Профиль формата : Layer 3
Режим : Joint stereo
Расширение режима : MS Stereo
Идентификатор кодека : 55
Идентификатор кодека/Подсказка : MP3
Продолжительность : 1 ч. 16 м.
Вид битрейта : Постоянный
Битрейт : 128 Кбит/сек
Каналы : 2 канала
Частота : 48,0 КГц
Метод сжатия : С потерями
Размер потока : 70,4 Мбайт (9%)
Выравнивание : Соединение по промежуткам
Продолжительность промежутка : 40 мс. (1,00 видеокадр)
Время предзагрузки промежутка : 504 мс





   Похожие торренты   Торрент   Размер 
В этой теме нет новых непрочитанных сообщений. Круглянский мост (1989) DVDRip-AVC от New-Team

27 | 3

1.09 ГБ

В этой теме нет новых непрочитанных сообщений. Круглянский мост (1989) DVDRip от New-Team

60 | 10

1.09 ГБ

В этой теме нет новых непрочитанных сообщений. Груз «300» (1989) DVDRip-AVC от New-Team

182 | 28

1.09 ГБ

В этой теме нет новых непрочитанных сообщений. Груз «300» (1989) DVDRip от New-Team

88 | 4

1.09 ГБ

В этой теме нет новых непрочитанных сообщений. Груз «300» (1989) DVDRip от New-Team

111 | 20

744.8 МБ

В этой теме нет новых непрочитанных сообщений. Мост (Мост-Дельта) - Дискография (1987-2010) MP3

11 | 8

465.74 МБ

В этой теме нет новых непрочитанных сообщений. Дон Сезар де Базан (1989) DVDRip от New-Team

0 | 0

2.18 ГБ




Вы не можете начинать темы
Вы не можете отвечать на сообщения
Вы не можете редактировать свои сообщения
Вы не можете удалять свои сообщения
Вы не можете добавлять вложения

Перейти:  
Для Мосгорсуда, Роскомнадзора и рекламодателей: mosgorsud-torrent[собачка]yandex.ru
 Вход
ppkBB3cker v.2 © 2008-2014 @ PPK
[ Time : 0.036s | 16 Queries | GZIP : Off ]

cron