img image001 image001 image001 image001 image001 image001 image001 image001 image001 image001 image001 image001 image001 image001 image001

Planets Sun Sun Sun
Статистика раздачи
Автор: Nickolas3434 | Размер: 2.14 ГБ | Добавлен: 18 окт 2015
Раздают: 332    Качают: 18
Скачать торрент
Скачать торрент
Описание торрента

СообщениеДобавлено: 18 окт 2015 


Информация о фильме
Название: Одиноким предоставляется общежитие
Год выхода: 1983
Жанр: Мелодрама, комедия, семейный
Режиссер: Самсон Самсонов
В ролях: Наталья Гундарева, Александр Михайлов, Тамара Сёмина, Фрунзик Мкртчян, Елена Драпеко, Виктор Павлов, Татьяна Божок, Татьяна Агафонова, Елена Майорова, Вера Трофимова
О фильме: В общежитие ткачих комендантом направляется бывший моряк. Он сразу же узнает, что душой вверенного ему коллектива является Вера Голубева, занимающаяся устройством личной жизни своих подруг. «Сваха» по призванию, она организовала нечто вроде бесплатного брачного агентства, собирая данные о потенциальных женихах со всей страны. Между Верой и новым комендантом отношения поначалу не складываются. Но потом он влюбляется в эту обаятельную и деятельную женщину. Однажды в свадебной машине будут и они с Верой...
Страна: СССР, Мосфильм
Продолжительность: 01:23:10
Перевод: не требуется
Файл
Кодек: x264
Качество: HDTVRip-AVC
Видео: MPEG-4 AVC, 3500 Кбит/с, 1024x432
Звук: AC3, 2 ch, 192 Кбит/с

Общее
Уникальный идентификатор : 193656487612188931792518463310643129337 (0x91B0E201EA2E419EB11803756D34EBF9)
Полное имя : D:Одиноким предоставляется общежитие_1983-HDTVRip-AVC.mkv
Формат : Matroska
Версия формата : Version 2
Размер файла : 2,14 Гбайт
Продолжительность : 1 ч. 23 м.
Общий поток : 3694 Кбит/сек
Дата кодирования : UTC 2015-10-17 10:26:16
Программа кодирования : mkvmerge v5.8.0 ('No Sleep / Pillow') built on Sep 2 2012 15:37:04
Библиотека кодирования : libebml v1.2.3 + libmatroska v1.3.0
Видео
Идентификатор : 1
Формат : AVC
Формат/Информация : Advanced Video Codec
Профиль формата : High@L4.1
Параметр CABAC формата : Да
Параметр ReFrames формата : 14 кадров
Идентификатор кодека : V_MPEG4/ISO/AVC
Продолжительность : 1 ч. 23 м.
Битрейт : 3500 Кбит/сек
Ширина : 1024 пикселя
Высота : 432 пикселя
Соотношение сторон : 2,40:1
Режим частоты кадров : Постоянный
Частота кадров : 25,000 кадров/сек
Цветовое пространство : YUV
Субдискретизация насыщенности : 4:2:0
Битовая глубина : 8 бит
Тип развёртки : Прогрессивная
Бит/(Пиксели*Кадры) : 0.316
Размер потока : 1,99 Гбайт (93%)
Библиотека кодирования : x264 core 148 r2579 73ae2d1
Настройки программы : cabac=1 / ref=14 / deblock=1:-2:-2 / analyse=0x3:0x113 / me=umh / subme=10 / psy=1 / psy_rd=1.05:0.13 / mixed_ref=1 / me_range=32 / chroma_me=1 / trellis=2 / 8x8dct=1 / cqm=0 / deadzone=21,11 / fast_pskip=0 / chroma_qp_offset=-3 / threads=12 / lookahead_threads=2 / sliced_threads=0 / nr=0 / decimate=0 / interlaced=0 / bluray_compat=0 / constrained_intra=0 / bframes=8 / b_pyramid=2 / b_adapt=2 / b_bias=0 / direct=3 / weightb=1 / open_gop=0 / weightp=2 / keyint=250 / keyint_min=25 / scenecut=40 / intra_refresh=0 / rc=2pass / mbtree=0 / bitrate=3500 / ratetol=1.0 / qcomp=0.63 / qpmin=0 / qpmax=39 / qpstep=4 / cplxblur=20.0 / qblur=0.5 / ip_ratio=1.40 / pb_ratio=1.30 / aq=1:1.00
Язык : English
Default : Да
Forced : Нет
Цветовой диапазон : Limited
Основные цвета : BT.709
Характеристики трансфера : BT.709
Коэффициенты матрицы : BT.709
Аудио
Идентификатор : 2
Формат : AC-3
Формат/Информация : Audio Coding 3
Расширение режима : CM (complete main)
Параметр Endianness формата : Big
Идентификатор кодека : A_AC3
Продолжительность : 1 ч. 23 м.
Вид битрейта : Постоянный
Битрейт : 192 Кбит/сек
Каналы : 2 канала
Расположение каналов : Front: L R
Частота : 48,0 КГц
Метод сжатия : С потерями
Задержка видео : 39 мс.
Размер потока : 114 Мбайт (5%)
Язык : Russian
Default : Да
Forced : Нет

Релиз от:
Автор релиза:



   Похожие торренты   Торрент   Размер 
В этой теме нет новых непрочитанных сообщений. Одиноким предоставляется общежитие (1983) DVDRip

130 | 22

699.63 МБ

В этой теме нет новых непрочитанных сообщений. Одиноким предоставляется общежитие (1983) DVD5

22 | 9

3.24 ГБ

В этой теме нет новых непрочитанных сообщений. Одиноким предоставляется общежитие (1983) DVDRip-AVC | iPad

857 | 40

2.15 ГБ

В этой теме нет новых непрочитанных сообщений. На последнем дыхании / Breathless (1983) HDTVRip 720p от ExKinoRay

6 | 3

2.68 ГБ

В этой теме нет новых непрочитанных сообщений. Общежитие / Общага / Hostel (2011) IPTVRip от Files-x | P

3 | 8

1.61 ГБ

В этой теме нет новых непрочитанных сообщений. Кремль-9. Надежда Аллилуева. Мавзолей. Общежитие для вождей (2005) SATRip, TVRip

2 | 6

1.59 ГБ

В этой теме нет новых непрочитанных сообщений. Непобедимый (1983) DVDRip-AVC от ExKinoRay

459 | 101

1.29 ГБ




Вы не можете начинать темы
Вы не можете отвечать на сообщения
Вы не можете редактировать свои сообщения
Вы не можете удалять свои сообщения
Вы не можете добавлять вложения

Перейти:  
Для Мосгорсуда, Роскомнадзора и рекламодателей: mosgorsud-torrent[собачка]yandex.ru
 Вход
ppkBB3cker v.2 © 2008-2014 @ PPK
[ Time : 0.880s | 14 Queries | GZIP : On ]

Торрент трекер RUTOR.IN, Не можете зайти на rutor.org? Какой новый адрес рутор? Какое зеркало рутор? Не работает rutor.org и зеркала? Тогда наш торрент специально для вас. Rutor.in неофициальное зеркало rutor. В случае если у Вас заблокирован rutor или вдруг Вы не можете на него зайти, то Вы без труда сможете скачать бесплатно и без рекламы последние новинки кино, игр, сериалов и прочего у нас, на Rutor.in. Не нужно использовать прокси, чтобы зайти на рутор, достаточно воспользоваться нашим ресурсом. Все новые фильмы, игры, сериалы, книги и музыка за 2013 и 2014 годы через торрент бесплатно. Скачивайте фильмы в хорошем качестве, игры для пк, xbox, playstation без регистрации. У нас вы найдете новые Зарубежные сериалы и Русские сериалы 2013, 2014, 2015 годов. Оставайтесь с нами, качайте любимые фильмы, игры, сериалы, книги и музыку.