img image001 image001 image001 image001 image001 image001 image001 image001 image001 image001 image001 image001 image001 image001 image001

Planets Sun Sun Sun
Статистика раздачи
Автор: Nickolas3434 | Размер: 1.09 ГБ | Добавлен: 19 окт 2015
Раздают: 8    Качают: 6
Скачать торрент
Скачать торрент
Описание торрента

СообщениеДобавлено: 19 окт 2015 

Страна: СССР
Производство: Киностудия им. А. Довженко
Жанр: военный фильм, драма, экранизация
Год выпуска: 1965
Продолжительность: 01:17:51
Перевод: Не требуется
Cубтитры: нет
Оригинальная аудиодорожка: русский
Режиссер: Николай Мащенко
В ролях:
Алексей Сафонов, Екатерина Крупенникова, Юрий Лавров, Никола Попович, Анатолий Иванов (VIII), Михаил Мансуров, Анна Николаева, Мария Самойлова, Алла Ледовая, Людмила Глазова, Уно Лойт, Виктор Чекмарёв, Игорь Ледогоров, Пётр Вескляров...
Полный список актёров
Описание:
По мотивам одноименной повести И. Голосовского.
Агент подпольщиков Днепропетровска Людмила Зайковская, пользуясь расположением немецких офицеров к себе, узнавала о тайных операциях «третьего рейха». В 1942 году фашисты разоблачили Людмилу и ее боевых товарищей, но после войны собранные данные оказались против Людмилы, и ее имя было запятнано. По прошествии 20 лет, полагаясь на ошибочные архивные данные, молодой журналист Алексей Трофименко (Алексей Сафонов) пишет статью о предательстве Людмилы. Но тут обнаруживаются свидетели, утверждающие о невиновности Зайковской. Алексей старается узнать правду и восстановить славное имя отважной женщины.





Источник: DVD5 R5
Качество видео: DVDRip
Формат видео: AVI
Видео: 688x512 (4:3), 25 fps, XviD ~ 1803 kbps avg, 0.205 bit/pixel
Аудио: 48 kHz, Dolby Digital AC3 2.0, 192 kbps
Раздача от:
Общее
Полное имя : Hochu.verit.1965.DVDRip_[New-team]_by_AVP_Studio.avi
Формат : AVI
Формат/Информация : Audio Video Interleave
Размер файла : 1,09 Гбайт
Продолжительность : 1 ч. 17 м.
Общий поток : 2005 Кбит/сек
Программа кодирования : VirtualDubMod 1.5.10.3 | www.virtualdub-fr.org || (build 2550/release)
Библиотека кодирования : VirtualDubMod build 2550/release
Видео
Идентификатор : 0
Формат : MPEG-4 Visual
Профиль формата : Advanced Simple@L5
Параметр BVOP формата : 1
Параметр QPel формата : Нет
Параметр GMC формата : Без точки перехода
Параметр матрицы формата : Выборочная
Идентификатор кодека : XVID
Идентификатор кодека/Подсказка : XviD
Продолжительность : 1 ч. 17 м.
Битрейт : 1803 Кбит/сек
Ширина : 688 пикселей
Высота : 512 пикселей
Соотношение сторон : 4:3
Частота кадров : 25,000 кадров/сек
Цветовое пространство : YUV
Субдискретизация насыщенности : 4:2:0
Битовая глубина : 8 бит
Тип развёртки : Прогрессивная
Метод сжатия : С потерями
Бит/(Пиксели*Кадры) : 0.205
Размер потока : 1004 Мбайт (90%)
Библиотека кодирования : XviD 73
Аудио
Идентификатор : 1
Формат : AC-3
Формат/Информация : Audio Coding 3
Расширение режима : CM (complete main)
Параметр Endianness формата : Big
Идентификатор кодека : 2000
Продолжительность : 1 ч. 17 м.
Вид битрейта : Постоянный
Битрейт : 192 Кбит/сек
Каналы : 2 канала
Расположение каналов : Front: L R
Частота : 48,0 КГц
Метод сжатия : С потерями
Размер потока : 107 Мбайт (10%)
Выравнивание : Разделение по промежуткам
Продолжительность промежутка : 40 мс. (1,00 видеокадр)
Время предзагрузки промежутка : 500 мс





   Похожие торренты   Торрент   Размер 
В этой теме нет новых непрочитанных сообщений. Хочу верить (1965) DVDRip-AVC от New-Team

43 | 7

1.09 ГБ

В этой теме нет новых непрочитанных сообщений. Хочу верить (1965) DVDRip от New-Team

11 | 20

745.34 МБ

В этой теме нет новых непрочитанных сообщений. Секретные материалы: Хочу верить / The X-Files: I Want to Believe (2008) HDTVRip-AVC от New-Team | D

179 | 20

745.18 МБ

В этой теме нет новых непрочитанных сообщений. Обыкновенный фашизм (1965) DVDRip от New-Team

385 | 23

2.19 ГБ

В этой теме нет новых непрочитанных сообщений. Обыкновенный фашизм (1965) DVDRip-AVC от New-Team

432 | 30

1.46 ГБ

В этой теме нет новых непрочитанных сообщений. Обыкновенный фашизм (1965) DVDRip от New-Team

328 | 19

1.46 ГБ

В этой теме нет новых непрочитанных сообщений. Никто не хотел умирать (1965) DVDRip от New-Team

52 | 10

1.09 ГБ




Вы не можете начинать темы
Вы не можете отвечать на сообщения
Вы не можете редактировать свои сообщения
Вы не можете удалять свои сообщения
Вы не можете добавлять вложения

Перейти:  
Для Мосгорсуда, Роскомнадзора и рекламодателей: mosgorsud-torrent[собачка]yandex.ru
 Вход
ppkBB3cker v.2 © 2008-2014 @ PPK
[ Time : 0.088s | 15 Queries | GZIP : On ]

Торрент трекер RUTOR.IN, Не можете зайти на rutor.org? Какой новый адрес рутор? Какое зеркало рутор? Не работает rutor.org и зеркала? Тогда наш торрент специально для вас. Rutor.in неофициальное зеркало rutor. В случае если у Вас заблокирован rutor или вдруг Вы не можете на него зайти, то Вы без труда сможете скачать бесплатно и без рекламы последние новинки кино, игр, сериалов и прочего у нас, на Rutor.in. Не нужно использовать прокси, чтобы зайти на рутор, достаточно воспользоваться нашим ресурсом. Все новые фильмы, игры, сериалы, книги и музыка за 2013 и 2014 годы через торрент бесплатно. Скачивайте фильмы в хорошем качестве, игры для пк, xbox, playstation без регистрации. У нас вы найдете новые Зарубежные сериалы и Русские сериалы 2013, 2014, 2015 годов. Оставайтесь с нами, качайте любимые фильмы, игры, сериалы, книги и музыку.