img image001 image001 image001 image001 image001 image001 image001 image001 image001 image001 image001 image001 image001 image001 image001

Planets Sun Sun Sun
Статистика раздачи
Автор: Nickolas3434 | Размер: 745.34 МБ | Добавлен: 18 окт 2015
Раздают: 8    Качают: 18
Скачать торрент
Скачать торрент
Описание торрента

СообщениеДобавлено: 18 окт 2015 

Страна: СССР
Производство: Киностудия им. А. Довженко
Жанр: военный фильм, драма, экранизация
Год выпуска: 1965
Продолжительность: 01:17:51
Перевод: Не требуется
Cубтитры: нет
Оригинальная аудиодорожка: русский
Режиссер: Николай Мащенко
В ролях:
Алексей Сафонов, Екатерина Крупенникова, Юрий Лавров, Никола Попович, Анатолий Иванов (VIII), Михаил Мансуров, Анна Николаева, Мария Самойлова, Алла Ледовая, Людмила Глазова, Уно Лойт, Виктор Чекмарёв, Игорь Ледогоров, Пётр Вескляров...
Полный список актёров
Описание:
По мотивам одноименной повести И. Голосовского.
Агент подпольщиков Днепропетровска Людмила Зайковская, пользуясь расположением немецких офицеров к себе, узнавала о тайных операциях «третьего рейха». В 1942 году фашисты разоблачили Людмилу и ее боевых товарищей, но после войны собранные данные оказались против Людмилы, и ее имя было запятнано. По прошествии 20 лет, полагаясь на ошибочные архивные данные, молодой журналист Алексей Трофименко (Алексей Сафонов) пишет статью о предательстве Людмилы. Но тут обнаруживаются свидетели, утверждающие о невиновности Зайковской. Алексей старается узнать правду и восстановить славное имя отважной женщины.





Источник: DVD5 R5
Качество видео: DVDRip
Формат видео: AVI
Видео: 640x480 (4:3), 25 fps, XviD ~ 1201 kbps avg, 0.156 bit/pixel
Аудио: 48 kHz, MP3 2.0, 128 kbps
Раздача от:
Общее
Полное имя : Hochu.verit.1965.DVDRip-745_[New-team]_by_AVP_Studio.avi
Формат : AVI
Формат/Информация : Audio Video Interleave
Размер файла : 745 Мбайт
Продолжительность : 1 ч. 17 м.
Общий поток : 1339 Кбит/сек
Программа кодирования : VirtualDubMod 1.5.10.3 | www.virtualdub-fr.org || (build 2550/release)
Библиотека кодирования : VirtualDubMod build 2550/release
Видео
Идентификатор : 0
Формат : MPEG-4 Visual
Профиль формата : Advanced Simple@L5
Параметр BVOP формата : 1
Параметр QPel формата : Нет
Параметр GMC формата : Без точки перехода
Параметр матрицы формата : Выборочная
Идентификатор кодека : XVID
Идентификатор кодека/Подсказка : XviD
Продолжительность : 1 ч. 17 м.
Битрейт : 1201 Кбит/сек
Ширина : 640 пикселей
Высота : 480 пикселей
Соотношение сторон : 4:3
Частота кадров : 25,000 кадров/сек
Цветовое пространство : YUV
Субдискретизация насыщенности : 4:2:0
Битовая глубина : 8 бит
Тип развёртки : Прогрессивная
Метод сжатия : С потерями
Бит/(Пиксели*Кадры) : 0.156
Размер потока : 669 Мбайт (90%)
Библиотека кодирования : XviD 73
Аудио
Идентификатор : 1
Формат : MPEG Audio
Версия формата : Version 1
Профиль формата : Layer 3
Идентификатор кодека : 55
Идентификатор кодека/Подсказка : MP3
Продолжительность : 1 ч. 17 м.
Вид битрейта : Постоянный
Битрейт : 128 Кбит/сек
Каналы : 2 канала
Частота : 48,0 КГц
Метод сжатия : С потерями
Размер потока : 71,3 Мбайт (10%)
Выравнивание : Соединение по промежуткам
Продолжительность промежутка : 40 мс. (1,00 видеокадр)
Время предзагрузки промежутка : 504 мс.
Библиотека кодирования : LAME3.99r
Настройки программы : -m s -V 4 -q 2 -lowpass 17 -b 128





   Похожие торренты   Торрент   Размер 
В этой теме нет новых непрочитанных сообщений. Хочу верить (1965) DVDRip от New-Team

8 | 6

1.09 ГБ

В этой теме нет новых непрочитанных сообщений. Хочу верить (1965) DVDRip-AVC от New-Team

31 | 6

1.09 ГБ

В этой теме нет новых непрочитанных сообщений. Секретные материалы: Хочу верить / The X-Files: I Want to Believe (2008) HDTVRip-AVC от New-Team | D

141 | 16

745.18 МБ

В этой теме нет новых непрочитанных сообщений. Обыкновенный фашизм (1965) DVDRip от New-Team

362 | 22

2.19 ГБ

В этой теме нет новых непрочитанных сообщений. Обыкновенный фашизм (1965) DVDRip от New-Team

263 | 18

1.46 ГБ

В этой теме нет новых непрочитанных сообщений. Обыкновенный фашизм (1965) DVDRip-AVC от New-Team

419 | 29

1.46 ГБ

В этой теме нет новых непрочитанных сообщений. Чрезвычайное поручение (1965) DVDRip-AVC от New-Team

0 | 0

1.46 ГБ




Вы не можете начинать темы
Вы не можете отвечать на сообщения
Вы не можете редактировать свои сообщения
Вы не можете удалять свои сообщения
Вы не можете добавлять вложения

Перейти:  
Для Мосгорсуда, Роскомнадзора и рекламодателей: mosgorsud-torrent[собачка]yandex.ru
 Вход
ppkBB3cker v.2 © 2008-2014 @ PPK
[ Time : 0.329s | 17 Queries | GZIP : Off ]

cron