img image001 image001 image001 image001 image001 image001 image001 image001 image001 image001 image001 image001 image001 image001 image001

Planets Sun Sun Sun
Статистика раздачи
Автор: Nickolas3434 | Размер: 1.45 ГБ | Добавлен: 19 окт 2015
Раздают: 5169    Качают: 153
Скачать торрент
Скачать торрент
Описание торрента

СообщениеДобавлено: 19 окт 2015 




Информация о фильме
Название: Орлеан
Оригинальное название: Орлеан
Год выхода: 2015
Жанр: комедия, триллер
Режиссер: Андрей Прошкин
В ролях: Елена Лядова, Виктор Сухоруков, Виталий Хаев, Олег Ягодин, Тимофей Трибунцев, Павел Табаков, Евгений Сытый, Александр Бавтриков, Азамат Нигманов, Полина Шулика
О фильме:
На русский провинциальный город с необычным названием Орлеан надвигается буря. Пока что о ней не догадываются его жители: парикмахерша Лида спит с кем ни попадя; врач Рудик водит к себе девиц, пользуясь служебным положением; полицейский не гнушается убийством; а фокусник, кажется, и вправду перепиливает девушек на сцене.

Выпущено: Россия
Продолжительность: 01:50:20
Озвучивание: Оригинальное [iTunes]
Файл
Формат: MKV
Качество: WEB-DLRip-AVC
Видео: MPEG-4 AVC, ~1500 kb/s, 1012x424
Аудио: AC3, 384 kb/s (6 ch)


General
Unique ID : 297196648611990935104114224362721478210 (0xDF95FE140B159573DF97BB9C55B58642)
Complete name : F:Орлеан.(2015).WEB-DLRip-AVC.[-=DoMiNo=-].mkv
Format : Matroska
Format version : Version 4 / Version 2
File size : 1.45 GiB
Duration : 1h 50mn
Overall bit rate : 1 886 Kbps
Movie name : Орлеан
Writing application : XviD4PSP 7.0.177
Writing library : Lavf56.25.101
DATE : 2015
GENRE : комедия, триллер
ENCODING_INFO : MATROSKA,WEBM > MKV / H264 > X264 VBR-2P 1498kbps Custom / AC3 > COPY
SYNOPSIS : На русский провинциальный город с необычным названием Орлеан надвигается буря. Пока что о ней не догадываются его жители: парикмахерша Лида спит с кем ни попадя; врач Рудик водит к себе девиц, пользуясь служебным положением; полицейский не гнушается убийством; а фокусник, кажется, и вправду перепиливает девушек на сцене.
ITUNEXTC : ru-movie|16+|375|
ACTORS : Елена Лядова, Виктор Сухоруков, Виталий Хаев, Олег Ягодин, Тимофей Трибунцев, Павел Табаков, Евгений Сытый, Александр Бавтриков, Азамат Нигманов, Полина Шулика, показать всех
DIRECTOR : Андрей Прошкин
PRODUCER : Игорь Мишин, Наталия Гостюшина, Елена Романова
WRITER : Юрий Арабов
COUNTRY : Россия
RATING : 7.465
IMDB_RATING : 8.00
Language : und
FILENAME : cover.png
Attachements : cover.png
Video
ID : 1
Format : AVC
Format/Info : Advanced Video Codec
Format profile : High@L4.1
Format settings, CABAC : Yes
Format settings, ReFrames : 12 frames
Codec ID : V_MPEG4/ISO/AVC
Duration : 1h 50mn
Bit rate : 1 498 Kbps
Width : 1 012 pixels
Height : 424 pixels
Display aspect ratio : 2.40:1
Frame rate mode : Constant
Frame rate : 24.000 fps
Color space : YUV
Chroma subsampling : 4:2:0
Bit depth : 8 bits
Scan type : Progressive
Bits/(Pixel*Frame) : 0.145
Stream size : 1.13 GiB (78%)
Writing library : x264 core 148 r2597M e86f3a1
Encoding settings : cabac=1 / ref=12 / deblock=1:-3:-3 / analyse=0x3:0x133 / me=umh / subme=11 / psy=1 / psy_rd=1.00:0.20 / mixed_ref=1 / me_range=32 / chroma_me=1 / trellis=2 / 8x8dct=1 / cqm=0 / deadzone=21,11 / fast_pskip=0 / chroma_qp_offset=-3 / threads=5 / lookahead_threads=1 / sliced_threads=0 / nr=0 / decimate=1 / interlaced=0 / bluray_compat=0 / constrained_intra=0 / bframes=11 / b_pyramid=2 / b_adapt=2 / b_bias=0 / direct=3 / weightb=1 / open_gop=0 / weightp=2 / keyint=240 / keyint_min=24 / scenecut=40 / intra_refresh=0 / rc=2pass / mbtree=0 / bitrate=1498 / ratetol=1.0 / qcomp=0.60 / qpmin=0 / qpmax=69 / qpstep=4 / cplxblur=20.0 / qblur=0.5 / ip_ratio=1.40 / pb_ratio=1.30 / aq=1:1.00
Language : English
Default : Yes
Forced : No
Color range : Limited
Color primaries : BT.709
Transfer characteristics : BT.709
Matrix coefficients : BT.709
Audio
ID : 2
Format : AC-3
Format/Info : Audio Coding 3
Mode extension : CM (complete main)
Format settings, Endianness : Big
Codec ID : A_AC3
Duration : 1h 50mn
Bit rate mode : Constant
Bit rate : 384 Kbps
Channel(s) : 6 channels
Channel positions : Front: L C R, Side: L R, LFE
Sampling rate : 48.0 KHz
Bit depth : 32 bits
Compression mode : Lossy
Stream size : 303 MiB (20%)
Language : Russian
Default : Yes
Forced : No
Menu
00:00:00.000 : :Глава 1
00:06:38.000 : :Глава 2
00:12:22.000 : :Глава 3
00:18:39.000 : :Глава 4
00:24:03.000 : :Глава 5
00:29:15.000 : :Глава 6
00:34:38.000 : :Глава 7
00:39:45.000 : :Глава 8
00:44:38.000 : :Глава 9
00:50:52.000 : :Глава 10
00:57:24.000 : :Глава 11
01:02:38.000 : :Глава 12
01:08:00.000 : :Глава 13
01:14:18.000 : :Глава 14
01:19:31.000 : :Глава 15
01:24:22.000 : :Глава 16
01:29:24.000 : :Глава 17
01:35:16.000 : :Глава 18
01:41:11.000 : :Глава 19







   Похожие торренты   Торрент   Размер 
В этой теме нет новых непрочитанных сообщений. Орлеан (2015) WEB-DLRip | iTunes

466 | 19

2.04 ГБ

В этой теме нет новых непрочитанных сообщений. Орлеан (2015) WEB-DLRip | iTunes

5430 | 194

1.46 ГБ

В этой теме нет новых непрочитанных сообщений. Орлеан (2015) WEB-DLRip-AVC | iTunes

147 | 19

747.38 МБ

В этой теме нет новых непрочитанных сообщений. Орлеан (2015) WEB-DLRip от Scarabey | iTunes

1867 | 81

1.45 ГБ

В этой теме нет новых непрочитанных сообщений. Орлеан (2015) WEB-DLRip-AVC от Scarabey | iTunes

611 | 38

2.17 ГБ

В этой теме нет новых непрочитанных сообщений. Орлеан (2015) WEB-DLRip от torrentfilm | iTunes

1203 | 61

743.76 МБ

В этой теме нет новых непрочитанных сообщений. Орлеан (2015) WEB-DL 1080p | iTunes

2314 | 103

3.81 ГБ




Вы не можете начинать темы
Вы не можете отвечать на сообщения
Вы не можете редактировать свои сообщения
Вы не можете удалять свои сообщения
Вы не можете добавлять вложения

Перейти:  
Для Мосгорсуда, Роскомнадзора и рекламодателей: mosgorsud-torrent[собачка]yandex.ru
 Вход
ppkBB3cker v.2 © 2008-2014 @ PPK
[ Time : 1.744s | 15 Queries | GZIP : Off ]

Торрент трекер RUTOR.IN, Не можете зайти на rutor.org? Какой новый адрес рутор? Какое зеркало рутор? Не работает rutor.org и зеркала? Тогда наш торрент специально для вас. Rutor.in неофициальное зеркало rutor. В случае если у Вас заблокирован rutor или вдруг Вы не можете на него зайти, то Вы без труда сможете скачать бесплатно и без рекламы последние новинки кино, игр, сериалов и прочего у нас, на Rutor.in. Не нужно использовать прокси, чтобы зайти на рутор, достаточно воспользоваться нашим ресурсом. Все новые фильмы, игры, сериалы, книги и музыка за 2013 и 2014 годы через торрент бесплатно. Скачивайте фильмы в хорошем качестве, игры для пк, xbox, playstation без регистрации. У нас вы найдете новые Зарубежные сериалы и Русские сериалы 2013, 2014, 2015 годов. Оставайтесь с нами, качайте любимые фильмы, игры, сериалы, книги и музыку.