img image001 image001 image001 image001 image001 image001 image001 image001 image001 image001 image001 image001 image001 image001 image001

Planets Sun Sun Sun
Статистика раздачи
Автор: Nickolas3434 | Размер: 745.95 МБ | Добавлен: 20 окт 2015
Раздают: 181    Качают: 9
Скачать торрент
Скачать торрент
Описание торрента

СообщениеДобавлено: 20 окт 2015 

Страна: СССР
Производство: Казахфильм
Жанр: драма, военный
Год выпуска: 1985
Продолжительность: 01:34:17
Перевод: Не требуется
Cубтитры: нет
Оригинальная аудиодорожка: русский
Режиссер: Болотбек Шамшиев
В ролях:
Айтурган Темирова, Марина Яковлева, Вера Глаголева, Елена Мельникова, Николай Скоробогатов, Касым Жакибаев, Юозас Киселюс, Эмиль Борончиев, Михаил Крылов (Шулейкин), Георгий Мартиросян, Джейхун (Джейк) Мирзоев, Татьяна Конюхова, Екатерина Горяева, Светлана Евстратова, Оразхан Кенебаев, Байкенже (Байкал) Бельбаев, Александр Беспалый, Анатолий Чарноцкий...
Полный список актёров
Описание:
Фильм посвящен Герою Советского Союза Алие Молдагуловой, погибшей в боях за освобождение Ленинграда.





Источник: VHS
Качество видео: VHSRip
Формат видео: AVI
Видео: 640x448 (1,429:1), 25 fps, XviD ~ 968 kbps avg, 0.135 bit/pixel
Аудио: 48 kHz, Dolby Digital AC3 2.0, 128 kbps
Раздача от:
Общее
Полное имя : Snaypery.1982.VHSRip_[New-team]_by_AVP_Studio.avi
Формат : AVI
Формат/Информация : Audio Video Interleave
Размер файла : 746 Мбайт
Продолжительность : 1 ч. 34 м.
Общий поток : 1106 Кбит/сек
Программа кодирования : VirtualDubMod 1.5.10.3 | www.virtualdub-fr.org || (build 2550/release)
Библиотека кодирования : VirtualDubMod build 2550/release
Видео
Идентификатор : 0
Формат : MPEG-4 Visual
Профиль формата : Advanced Simple@L5
Параметр BVOP формата : 1
Параметр QPel формата : Нет
Параметр GMC формата : Без точки перехода
Параметр матрицы формата : Выборочная
Идентификатор кодека : XVID
Идентификатор кодека/Подсказка : XviD
Продолжительность : 1 ч. 34 м.
Битрейт : 968 Кбит/сек
Ширина : 640 пикселей
Высота : 448 пикселей
Соотношение сторон : 1,429
Частота кадров : 25,000 кадров/сек
Цветовое пространство : YUV
Субдискретизация насыщенности : 4:2:0
Битовая глубина : 8 бит
Тип развёртки : Прогрессивная
Метод сжатия : С потерями
Бит/(Пиксели*Кадры) : 0.135
Размер потока : 653 Мбайт (88%)
Библиотека кодирования : XviD 73
Аудио
Идентификатор : 1
Формат : AC-3
Формат/Информация : Audio Coding 3
Расширение режима : CM (complete main)
Параметр Endianness формата : Big
Идентификатор кодека : 2000
Продолжительность : 1 ч. 34 м.
Вид битрейта : Постоянный
Битрейт : 128 Кбит/сек
Каналы : 2 канала
Расположение каналов : Front: L R
Частота : 48,0 КГц
Метод сжатия : С потерями
Задержка видео : 124 мс.
Размер потока : 86,3 Мбайт (12%)
Выравнивание : Разделение по промежуткам
Продолжительность промежутка : 40 мс. (1,00 видеокадр)
Время предзагрузки промежутка : 500 мс





   Похожие торренты   Торрент   Размер 
В этой теме нет новых непрочитанных сообщений. Снайперы (1985) VHSRip-AVC от New-Team

166 | 14

1.09 ГБ

В этой теме нет новых непрочитанных сообщений. Снайперы: Любовь под прицелом [01-08 из 08] (2012) DVDRip-AVC от New-Team | лицензия

50 | 18

6.86 ГБ

В этой теме нет новых непрочитанных сообщений. Снайперы: Любовь под прицелом [01-08 из 08] (2012) DVDRip от New-Team | лицензия

601 | 59

6.87 ГБ

В этой теме нет новых непрочитанных сообщений. Снайперы: Любовь под прицелом [01-08 из 08] (2012) 2xDVD9 R5 от New-Team | лицензия

0 | 5

15.57 ГБ

В этой теме нет новых непрочитанных сообщений. Контракт (1985) VHSRip

314 | 10

127.59 МБ

В этой теме нет новых непрочитанных сообщений. Свора (1985) VHSRip

1 | 23

1.31 ГБ

В этой теме нет новых непрочитанных сообщений. О возвращении забыть (1985) VHSRip

57 | 14

706.41 МБ




Вы не можете начинать темы
Вы не можете отвечать на сообщения
Вы не можете редактировать свои сообщения
Вы не можете удалять свои сообщения
Вы не можете добавлять вложения

Перейти:  
Для Мосгорсуда, Роскомнадзора и рекламодателей: mosgorsud-torrent[собачка]yandex.ru
 Вход
ppkBB3cker v.2 © 2008-2014 @ PPK
[ Time : 0.035s | 15 Queries | GZIP : Off ]

Торрент трекер RUTOR.IN, Не можете зайти на rutor.org? Какой новый адрес рутор? Какое зеркало рутор? Не работает rutor.org и зеркала? Тогда наш торрент специально для вас. Rutor.in неофициальное зеркало rutor. В случае если у Вас заблокирован rutor или вдруг Вы не можете на него зайти, то Вы без труда сможете скачать бесплатно и без рекламы последние новинки кино, игр, сериалов и прочего у нас, на Rutor.in. Не нужно использовать прокси, чтобы зайти на рутор, достаточно воспользоваться нашим ресурсом. Все новые фильмы, игры, сериалы, книги и музыка за 2013 и 2014 годы через торрент бесплатно. Скачивайте фильмы в хорошем качестве, игры для пк, xbox, playstation без регистрации. У нас вы найдете новые Зарубежные сериалы и Русские сериалы 2013, 2014, 2015 годов. Оставайтесь с нами, качайте любимые фильмы, игры, сериалы, книги и музыку.