img image001 image001 image001 image001 image001 image001 image001 image001 image001 image001 image001 image001 image001 image001 image001

Planets Sun Sun Sun
Статистика раздачи
Автор: Nickolas3434 | Размер: 745.4 МБ | Добавлен: 20 окт 2015
Раздают: 8    Качают: 4
Скачать торрент
Скачать торрент
Описание торрента

СообщениеДобавлено: 20 окт 2015 

Страна: СССР
Производство: Узбекфильм
Жанр: военный
Год выпуска: 1969
Продолжительность: 01:13:00
Перевод: Не требуется
Cубтитры: нет
Оригинальная аудиодорожка: русский
Режиссер: Загид Сабитов
В ролях:
Шухрат Иргашев, Рудольф Аллаберт, Михаил Погоржельский, Владислав Стржельчик, Клеон Протасов, Владимир Прохоров, Георгий Шевцов, Олев Эскола, Маури Раус, Олег Глинка...
Полный список актёров
Описание:
Действие происходит на севере Скандинавии, где гитлеровская Германия старалась удержать свой последний рубеж. Сюда волею обстоятельств попадает летчик-штурман узбек Акбар Ибрагимов (Шухрат Эргашев), самолет которого был сбит в бою, и вступает в ряды участников Сопротивления. Вскоре ему удалось пробраться офицером на немецкую подводную лодку и позже сообщать о секретных базах противника.





Источник: DVB
Качество видео: SATRip
Формат видео: AVI
Видео: 688x272 (2,529:1), 25 fps, XviD ~ 1226 kbps avg, 0.262 bit/pixel
Аудио: 48 kHz, Dolby Digital AC3 2.0, 192 kbps
Раздача от:
Общее
Полное имя : On.byl.ne.odin.1969.SATRip_[New-team]_by_AVP_Studio.avi
Формат : AVI
Формат/Информация : Audio Video Interleave
Размер файла : 745 Мбайт
Продолжительность : 1 ч. 13 м.
Общий поток : 1428 Кбит/сек
Программа кодирования : VirtualDubMod 1.5.10.3 | www.virtualdub-fr.org || (build 2550/release)
Библиотека кодирования : VirtualDubMod build 2550/release
Видео
Идентификатор : 0
Формат : MPEG-4 Visual
Профиль формата : Advanced Simple@L5
Параметр BVOP формата : 1
Параметр QPel формата : Нет
Параметр GMC формата : Без точки перехода
Параметр матрицы формата : Выборочная
Идентификатор кодека : XVID
Идентификатор кодека/Подсказка : XviD
Продолжительность : 1 ч. 13 м.
Битрейт : 1226 Кбит/сек
Ширина : 688 пикселей
Высота : 272 пикселя
Соотношение сторон : 2,529
Частота кадров : 25,000 кадров/сек
Цветовое пространство : YUV
Субдискретизация насыщенности : 4:2:0
Битовая глубина : 8 бит
Тип развёртки : Прогрессивная
Метод сжатия : С потерями
Бит/(Пиксели*Кадры) : 0.262
Размер потока : 640 Мбайт (86%)
Библиотека кодирования : XviD 73
Аудио
Идентификатор : 1
Формат : AC-3
Формат/Информация : Audio Coding 3
Расширение режима : CM (complete main)
Параметр Endianness формата : Big
Идентификатор кодека : 2000
Продолжительность : 1 ч. 13 м.
Вид битрейта : Постоянный
Битрейт : 192 Кбит/сек
Каналы : 2 канала
Расположение каналов : Front: L R
Частота : 48,0 КГц
Метод сжатия : С потерями
Размер потока : 100 Мбайт (13%)
Выравнивание : Разделение по промежуткам
Продолжительность промежутка : 40 мс. (1,00 видеокадр)
Время предзагрузки промежутка : 500 мс





   Похожие торренты   Торрент   Размер 
В этой теме нет новых непрочитанных сообщений. Он был не один (1969) SATRip-AVC от New-Team

27 | 7

744.54 МБ

В этой теме нет новых непрочитанных сообщений. Пять дней отдыха (1969) SATRip-AVC от New-Team

11 | 3

744.83 МБ

В этой теме нет новых непрочитанных сообщений. Пять дней отдыха (1969) SATRip от New-Team

6 | 5

745.28 МБ

В этой теме нет новых непрочитанных сообщений. Донатас Банионис. Я остался совсем один (2014) SATRip от New-Team

53 | 5

541.76 МБ

В этой теме нет новых непрочитанных сообщений. Майкл Джордан. Интервью. Один на Один с Ахмад Рашадом (2013) SATRip

0 | 3

587.78 МБ

В этой теме нет новых непрочитанных сообщений. Один + один [01-04] (2015-2016) SATRip от Files-х

0 | 0

2.69 ГБ

В этой теме нет новых непрочитанных сообщений. Один в один. Финал. Часть 01 [26.05] (2013) SATRip

66 | 5

1.2 ГБ




Вы не можете начинать темы
Вы не можете отвечать на сообщения
Вы не можете редактировать свои сообщения
Вы не можете удалять свои сообщения
Вы не можете добавлять вложения

Перейти:  
Для Мосгорсуда, Роскомнадзора и рекламодателей: mosgorsud-torrent[собачка]yandex.ru
 Вход
ppkBB3cker v.2 © 2008-2014 @ PPK
[ Time : 0.038s | 16 Queries | GZIP : Off ]

Торрент трекер RUTOR.IN, Не можете зайти на rutor.org? Какой новый адрес рутор? Какое зеркало рутор? Не работает rutor.org и зеркала? Тогда наш торрент специально для вас. Rutor.in неофициальное зеркало rutor. В случае если у Вас заблокирован rutor или вдруг Вы не можете на него зайти, то Вы без труда сможете скачать бесплатно и без рекламы последние новинки кино, игр, сериалов и прочего у нас, на Rutor.in. Не нужно использовать прокси, чтобы зайти на рутор, достаточно воспользоваться нашим ресурсом. Все новые фильмы, игры, сериалы, книги и музыка за 2013 и 2014 годы через торрент бесплатно. Скачивайте фильмы в хорошем качестве, игры для пк, xbox, playstation без регистрации. У нас вы найдете новые Зарубежные сериалы и Русские сериалы 2013, 2014, 2015 годов. Оставайтесь с нами, качайте любимые фильмы, игры, сериалы, книги и музыку.