img image001 image001 image001 image001 image001 image001 image001 image001 image001 image001 image001 image001 image001 image001 image001

Planets Sun Sun Sun
Статистика раздачи
Автор: Nickolas3434 | Размер: 745.04 МБ | Добавлен: 20 окт 2015
Раздают: 17    Качают: 6
Скачать торрент
Скачать торрент
Описание торрента

СообщениеДобавлено: 20 окт 2015 

Страна: СССР
Производство: Ленфильм
Жанр: драма, военный
Год выпуска: 1973
Продолжительность: 01:13:00
Перевод: Не требуется
Cубтитры: нет
Оригинальная аудиодорожка: русский
Режиссер: Наталья Трощенко, Анатолий Вехотко
В ролях:
Валерий Золотухин, Екатерина Васильева, Виктория Фёдорова, Евгения Сабельникова, Виолетта Жухимович, Надежда Карпушина, Людмила Старицына, Артём Иноземцев, Дагун Омаев...
Полный список актёров
Описание:
Героическая драма по документальной повести П. Заводчикова и С. Самойлова «Девичья команда».
Фильм, основанный на реальных событиях Великой Отечественной войны, рассказывает о командире саперного женского батальона (Валерий Золотухин) и шести девушках.





Источник: DVB
Качество видео: SATRip
Формат видео: AVI
Видео: 704x304 (2,35:1), 25 fps, XviD ~ 1169 kbps avg, 0.219 bit/pixel
Аудио: 48 kHz, Dolby Digital AC3 2.0, 192 kbps
Раздача от:
Общее
Полное имя : O.teh,kogo.pomnyu.i.lyublyu.1973.SATRip_[New-team]_by_AVP_Studio.avi
Формат : AVI
Формат/Информация : Audio Video Interleave
Размер файла : 745 Мбайт
Продолжительность : 1 ч. 15 м.
Общий поток : 1371 Кбит/сек
Программа кодирования : VirtualDubMod 1.5.10.3 | www.virtualdub-fr.org || (build 2550/release)
Библиотека кодирования : VirtualDubMod build 2550/release
Видео
Идентификатор : 0
Формат : MPEG-4 Visual
Профиль формата : Advanced Simple@L5
Параметр BVOP формата : 1
Параметр QPel формата : Нет
Параметр GMC формата : Без точки перехода
Параметр матрицы формата : Выборочная
Идентификатор кодека : XVID
Идентификатор кодека/Подсказка : XviD
Продолжительность : 1 ч. 15 м.
Битрейт : 1169 Кбит/сек
Ширина : 704 пикселя
Высота : 304 пикселя
Соотношение сторон : 2,35:1
Частота кадров : 25,000 кадров/сек
Цветовое пространство : YUV
Субдискретизация насыщенности : 4:2:0
Битовая глубина : 8 бит
Тип развёртки : Прогрессивная
Метод сжатия : С потерями
Бит/(Пиксели*Кадры) : 0.219
Размер потока : 635 Мбайт (85%)
Библиотека кодирования : XviD 73
Аудио
Идентификатор : 1
Формат : AC-3
Формат/Информация : Audio Coding 3
Расширение режима : CM (complete main)
Параметр Endianness формата : Big
Идентификатор кодека : 2000
Продолжительность : 1 ч. 15 м.
Вид битрейта : Постоянный
Битрейт : 192 Кбит/сек
Каналы : 2 канала
Расположение каналов : Front: L R
Частота : 48,0 КГц
Метод сжатия : С потерями
Размер потока : 104 Мбайт (14%)
Выравнивание : Разделение по промежуткам
Продолжительность промежутка : 40 мс. (1,00 видеокадр)
Время предзагрузки промежутка : 500 мс





   Похожие торренты   Торрент   Размер 
В этой теме нет новых непрочитанных сообщений. О тех, кого помню и люблю (1973) SATRip-AVC от New-Team

53 | 6

744.17 МБ

В этой теме нет новых непрочитанных сообщений. Помню – не помню! (2016) WEB-DLRip-AVC от New-Team | iTunes

538 | 9

1.37 ГБ

В этой теме нет новых непрочитанных сообщений. Помню – не помню! (2016) WEB-DLRip-AVC от New-Team | iTunes

192 | 4

745.58 МБ

В этой теме нет новых непрочитанных сообщений. Помню - не помню! (2016) WEB-DLRip-AVC от ExKinoRay | iTunes Russia

95 | 3

1.25 ГБ

В этой теме нет новых непрочитанных сообщений. Помню – не помню! (2016) WEB-DLRip от Scarabey | iTunes

1031 | 20

1.37 ГБ

В этой теме нет новых непрочитанных сообщений. Помню – не помню! (2016) WEB-DLRip от Scarabey | iTunes

1022 | 31

747.3 МБ

В этой теме нет новых непрочитанных сообщений. Помню – не помню! (2016) WEB-DLRip от MegaPeer | iTunes

826 | 33

741.91 МБ




Вы не можете начинать темы
Вы не можете отвечать на сообщения
Вы не можете редактировать свои сообщения
Вы не можете удалять свои сообщения
Вы не можете добавлять вложения

Перейти:  
Для Мосгорсуда, Роскомнадзора и рекламодателей: mosgorsud-torrent[собачка]yandex.ru
 Вход
ppkBB3cker v.2 © 2008-2014 @ PPK
[ Time : 0.312s | 16 Queries | GZIP : Off ]

Торрент трекер RUTOR.IN, Не можете зайти на rutor.org? Какой новый адрес рутор? Какое зеркало рутор? Не работает rutor.org и зеркала? Тогда наш торрент специально для вас. Rutor.in неофициальное зеркало rutor. В случае если у Вас заблокирован rutor или вдруг Вы не можете на него зайти, то Вы без труда сможете скачать бесплатно и без рекламы последние новинки кино, игр, сериалов и прочего у нас, на Rutor.in. Не нужно использовать прокси, чтобы зайти на рутор, достаточно воспользоваться нашим ресурсом. Все новые фильмы, игры, сериалы, книги и музыка за 2013 и 2014 годы через торрент бесплатно. Скачивайте фильмы в хорошем качестве, игры для пк, xbox, playstation без регистрации. У нас вы найдете новые Зарубежные сериалы и Русские сериалы 2013, 2014, 2015 годов. Оставайтесь с нами, качайте любимые фильмы, игры, сериалы, книги и музыку.
cron