img image001 image001 image001 image001 image001 image001 image001 image001 image001 image001 image001 image001 image001 image001 image001

Planets Sun Sun Sun
Статистика раздачи
Автор: Nickolas3434 | Размер: 744.17 МБ | Добавлен: 19 окт 2015
Раздают: 52    Качают: 6
Скачать торрент
Скачать торрент
Описание торрента

СообщениеДобавлено: 19 окт 2015 

Страна: СССР
Производство: Ленфильм
Жанр: драма, военный
Год выпуска: 1973
Продолжительность: 01:13:00
Перевод: Не требуется
Cубтитры: нет
Оригинальная аудиодорожка: русский
Режиссер: Наталья Трощенко, Анатолий Вехотко
В ролях:
Валерий Золотухин, Екатерина Васильева, Виктория Фёдорова, Евгения Сабельникова, Виолетта Жухимович, Надежда Карпушина, Людмила Старицына, Артём Иноземцев, Дагун Омаев...
Полный список актёров
Описание:
Героическая драма по документальной повести П. Заводчикова и С. Самойлова «Девичья команда».
Фильм, основанный на реальных событиях Великой Отечественной войны, рассказывает о командире саперного женского батальона (Валерий Золотухин) и шести девушках.





Источник: DVB
Качество видео: SATRip-AVC
Формат видео: MKV
Видео: 704->790x336 (2,35:1), 25 fps, H264 ~ 1176 kbps avg, 0.199 bit/pixel
Аудио: 48 kHz, Dolby Digital AC3 2.0, 192 kbps
Раздача от:
Общее
Полное имя : O.teh,kogo.pomnyu.i.lyublyu.1973.SATRip-AVC_[New-team]_by_AVP_Studio.mkv
Формат : Matroska
Версия формата : Version 2
Размер файла : 744 Мбайт
Продолжительность : 1 ч. 15 м.
Общий поток : 1370 Кбит/сек
Дата кодирования : UTC 2015-10-18 20:13:54
Программа кодирования : mkvmerge v6.1.0 ('Old Devil') built on Mar 4 2013 09:10:42
Библиотека кодирования : libebml v1.3.0 + libmatroska v1.4.0
Видео
Идентификатор : 1
Формат : AVC
Формат/Информация : Advanced Video Codec
Профиль формата : High@L4.1
Параметр CABAC формата : Да
Параметр ReFrames формата : 10 кадров
Идентификатор кодека : V_MPEG4/ISO/AVC
Продолжительность : 1 ч. 15 м.
Битрейт : 1176 Кбит/сек
Ширина : 704 пикселя
Высота : 336 пикселей
Соотношение сторон : 2,35:1
Соотношение сторон в оригинале : 2,35:1
Режим частоты кадров : Постоянный
Частота кадров : 25,000 кадров/сек
Цветовое пространство : YUV
Субдискретизация насыщенности : 4:2:0
Битовая глубина : 8 бит
Тип развёртки : Прогрессивная
Бит/(Пиксели*Кадры) : 0.199
Размер потока : 625 Мбайт (84%)
Библиотека кодирования : x264 core 148 r2597 e86f3a1
Настройки программы : cabac=1 / ref=10 / deblock=1:-2:-1 / analyse=0x3:0x113 / me=umh / subme=10 / psy=1 / psy_rd=1.00:0.00 / mixed_ref=1 / me_range=32 / chroma_me=1 / trellis=2 / 8x8dct=1 / cqm=0 / deadzone=21,11 / fast_pskip=1 / chroma_qp_offset=-2 / threads=6 / lookahead_threads=1 / sliced_threads=0 / nr=0 / decimate=0 / interlaced=0 / bluray_compat=0 / constrained_intra=0 / bframes=8 / b_pyramid=2 / b_adapt=2 / b_bias=0 / direct=3 / weightb=1 / open_gop=0 / weightp=2 / keyint=250 / keyint_min=25 / scenecut=40 / intra_refresh=0 / rc=2pass / mbtree=0 / bitrate=1176 / ratetol=1.0 / qcomp=0.60 / qpmin=0 / qpmax=69 / qpstep=4 / cplxblur=20.0 / qblur=0.5 / ip_ratio=1.40 / pb_ratio=1.30 / aq=1:1.00
Default : Да
Forced : Нет
Аудио
Идентификатор : 2
Формат : AC-3
Формат/Информация : Audio Coding 3
Расширение режима : CM (complete main)
Параметр Endianness формата : Big
Идентификатор кодека : A_AC3
Продолжительность : 1 ч. 15 м.
Вид битрейта : Постоянный
Битрейт : 192 Кбит/сек
Каналы : 2 канала
Расположение каналов : Front: L R
Частота : 48,0 КГц
Метод сжатия : С потерями
Размер потока : 104 Мбайт (14%)
Default : Да
Forced : Нет





   Похожие торренты   Торрент   Размер 
В этой теме нет новых непрочитанных сообщений. О тех, кого помню и люблю (1973) SATRip от New-Team

18 | 6

745.04 МБ

В этой теме нет новых непрочитанных сообщений. Помню – не помню! (2016) WEB-DLRip-AVC от New-Team | iTunes

192 | 4

745.58 МБ

В этой теме нет новых непрочитанных сообщений. Помню – не помню! (2016) WEB-DLRip-AVC от New-Team | iTunes

492 | 7

1.37 ГБ

В этой теме нет новых непрочитанных сообщений. Помню - не помню! (2016) WEB-DLRip-AVC от ExKinoRay | iTunes Russia

61 | 3

1.25 ГБ

В этой теме нет новых непрочитанных сообщений. Помню – не помню! (2016) WEB-DLRip | КПК от ImperiaFilm | iTunes

307 | 5

256.8 МБ

В этой теме нет новых непрочитанных сообщений. Помню – не помню! (2016) WEB-DLRip от Scarabey | iTunes

925 | 23

1.37 ГБ

В этой теме нет новых непрочитанных сообщений. Помню – не помню! (2016) WEB-DLRip от Scarabey | iTunes

1022 | 31

747.3 МБ




Вы не можете начинать темы
Вы не можете отвечать на сообщения
Вы не можете редактировать свои сообщения
Вы не можете удалять свои сообщения
Вы не можете добавлять вложения

Перейти:  
Для Мосгорсуда, Роскомнадзора и рекламодателей: mosgorsud-torrent[собачка]yandex.ru
 Вход
ppkBB3cker v.2 © 2008-2014 @ PPK
[ Time : 0.022s | 17 Queries | GZIP : Off ]

Торрент трекер RUTOR.IN, Не можете зайти на rutor.org? Какой новый адрес рутор? Какое зеркало рутор? Не работает rutor.org и зеркала? Тогда наш торрент специально для вас. Rutor.in неофициальное зеркало rutor. В случае если у Вас заблокирован rutor или вдруг Вы не можете на него зайти, то Вы без труда сможете скачать бесплатно и без рекламы последние новинки кино, игр, сериалов и прочего у нас, на Rutor.in. Не нужно использовать прокси, чтобы зайти на рутор, достаточно воспользоваться нашим ресурсом. Все новые фильмы, игры, сериалы, книги и музыка за 2013 и 2014 годы через торрент бесплатно. Скачивайте фильмы в хорошем качестве, игры для пк, xbox, playstation без регистрации. У нас вы найдете новые Зарубежные сериалы и Русские сериалы 2013, 2014, 2015 годов. Оставайтесь с нами, качайте любимые фильмы, игры, сериалы, книги и музыку.
cron