img image001 image001 image001 image001 image001 image001 image001 image001 image001 image001 image001 image001 image001 image001 image001

Planets Sun Sun Sun
Статистика раздачи
Автор: Nickolas3434 | Размер: 2.36 ГБ | Добавлен: 21 окт 2015
Раздают: 258    Качают: 13
Скачать торрент
Скачать торрент
Описание торрента

СообщениеДобавлено: 21 окт 2015 


Информация о фильме
Название: Повесть о настоящем человеке
Год выхода: 1948
Жанр: драма, военный
Режиссер: Александр Столпер
В ролях: Павел Кадочников, Николай Охлопков, Алексей Дикий, Василий Меркурьев, Тамара Макарова, Людмила Целиковская, Чеслав Сушкевич, Виктор Хохряков, Александр Михайлов, Борис Добронравов, Борис Бабочкин, Любовь Соколова, Владимир Грибков
О фильме: В основе драматической истории — реальные факты биографии летчика-истребителя Алексея Маресьева. Сбитый в бою над оккупированной территорией, он три недели пробирался по заснеженным лесам, пока не попал к партизанам. Потеряв обе ноги, герой впоследствии проявляет удивительную силу характера, вновь садится за штурвал самолета и пополняет счет воздушных побед над врагом.
Страна: СССР
Продолжительность: 01:29:44
Перевод: не требуется
Файл
Кодек: x264
Качество: DVDRip-AVC
Видео: MPEG-4 AVC, 3500 Кбит/с, 688x566
Звук: AC3, 2 ch, 256 Кбит/с

Общее
Уникальный идентификатор : 224192912477018396762188842695972049544 (0xA8A9FBFE17936602B53FEA78ACFF5288)
Полное имя : D:Повесть о настоящем человеке_1948-DVDRip-AVC.mkv
Формат : Matroska
Версия формата : Version 2
Размер файла : 2,36 Гбайт
Продолжительность : 1 ч. 29 м.
Общий поток : 3758 Кбит/сек
Дата кодирования : UTC 2015-10-20 11:21:09
Программа кодирования : mkvmerge v5.8.0 ('No Sleep / Pillow') built on Sep 2 2012 15:37:04
Библиотека кодирования : libebml v1.2.3 + libmatroska v1.3.0
Видео
Идентификатор : 1
Формат : AVC
Формат/Информация : Advanced Video Codec
Профиль формата : High@L4.1
Параметр CABAC формата : Да
Параметр ReFrames формата : 16 кадров
Идентификатор кодека : V_MPEG4/ISO/AVC
Продолжительность : 1 ч. 29 м.
Битрейт : 3500 Кбит/сек
Ширина : 688 пикселей
Высота : 566 пикселей
Соотношение сторон : 1,216
Режим частоты кадров : Постоянный
Частота кадров : 25,000 кадров/сек
Цветовое пространство : YUV
Субдискретизация насыщенности : 4:2:0
Битовая глубина : 8 бит
Тип развёртки : Прогрессивная
Бит/(Пиксели*Кадры) : 0.360
Размер потока : 2,15 Гбайт (91%)
Библиотека кодирования : x264 core 148 r2579 73ae2d1
Настройки программы : cabac=1 / ref=16 / deblock=1:-3:-2 / analyse=0x3:0x133 / me=umh / subme=10 / psy=1 / psy_rd=1.05:0.20 / mixed_ref=1 / me_range=32 / chroma_me=1 / trellis=2 / 8x8dct=1 / cqm=0 / deadzone=21,11 / fast_pskip=0 / chroma_qp_offset=-3 / threads=12 / lookahead_threads=2 / sliced_threads=0 / nr=0 / decimate=0 / interlaced=0 / bluray_compat=0 / constrained_intra=0 / bframes=9 / b_pyramid=2 / b_adapt=2 / b_bias=0 / direct=3 / weightb=1 / open_gop=0 / weightp=2 / keyint=250 / keyint_min=25 / scenecut=40 / intra_refresh=0 / rc=2pass / mbtree=0 / bitrate=3500 / ratetol=1.0 / qcomp=0.63 / qpmin=0 / qpmax=39 / qpstep=4 / cplxblur=20.0 / qblur=0.5 / ip_ratio=1.40 / pb_ratio=1.30 / aq=1:1.00
Язык : English
Default : Да
Forced : Нет
Цветовой диапазон : Limited
Основные цвета : BT.601 PAL
Характеристики трансфера : BT.470 System B, BT.470 System G
Коэффициенты матрицы : BT.601
Аудио
Идентификатор : 2
Формат : AC-3
Формат/Информация : Audio Coding 3
Расширение режима : CM (complete main)
Параметр Endianness формата : Big
Идентификатор кодека : A_AC3
Продолжительность : 1 ч. 29 м.
Вид битрейта : Постоянный
Битрейт : 256 Кбит/сек
Каналы : 2 канала
Расположение каналов : Front: L R
Частота : 48,0 КГц
Метод сжатия : С потерями
Размер потока : 164 Мбайт (7%)
Язык : Russian
Default : Да
Forced : Нет

Релиз от:
Автор релиза:



   Похожие торренты   Торрент   Размер 
В этой теме нет новых непрочитанных сообщений. Повесть о настоящем человеке (1948) DVDRip от Scarabey

103 | 19

1.44 ГБ

В этой теме нет новых непрочитанных сообщений. Повесть о настоящем человеке (1948) DVDRip от Alekxandr48

45 | 4

1.37 ГБ

В этой теме нет новых непрочитанных сообщений. Повесть о настоящем человеке (1948) DVDRip от Youtracker

4 | 2

1.46 ГБ

В этой теме нет новых непрочитанных сообщений. Повесть о настоящем человеке (1948) DVDRip от Youtracker

112 | 41

744.6 МБ

В этой теме нет новых непрочитанных сообщений. Повесть о настоящем человеке (1948) DVDRip-AVC от Youtracker

223 | 9

1.46 ГБ

В этой теме нет новых непрочитанных сообщений. Борис Полевой - Повесть о настоящем человеке (1979) MP3

50 | 0

100.64 МБ

В этой теме нет новых непрочитанных сообщений. Донская повесть (1964) DVDRip-AVC от ExKinoRay

54 | 7

2.32 ГБ




Вы не можете начинать темы
Вы не можете отвечать на сообщения
Вы не можете редактировать свои сообщения
Вы не можете удалять свои сообщения
Вы не можете добавлять вложения

Перейти:  
Для Мосгорсуда, Роскомнадзора и рекламодателей: mosgorsud-torrent[собачка]yandex.ru
 Вход
ppkBB3cker v.2 © 2008-2014 @ PPK
[ Time : 0.023s | 15 Queries | GZIP : On ]

Торрент трекер RUTOR.IN, Не можете зайти на rutor.org? Какой новый адрес рутор? Какое зеркало рутор? Не работает rutor.org и зеркала? Тогда наш торрент специально для вас. Rutor.in неофициальное зеркало rutor. В случае если у Вас заблокирован rutor или вдруг Вы не можете на него зайти, то Вы без труда сможете скачать бесплатно и без рекламы последние новинки кино, игр, сериалов и прочего у нас, на Rutor.in. Не нужно использовать прокси, чтобы зайти на рутор, достаточно воспользоваться нашим ресурсом. Все новые фильмы, игры, сериалы, книги и музыка за 2013 и 2014 годы через торрент бесплатно. Скачивайте фильмы в хорошем качестве, игры для пк, xbox, playstation без регистрации. У нас вы найдете новые Зарубежные сериалы и Русские сериалы 2013, 2014, 2015 годов. Оставайтесь с нами, качайте любимые фильмы, игры, сериалы, книги и музыку.