img image001 image001 image001 image001 image001 image001 image001 image001 image001 image001 image001 image001 image001 image001 image001

Planets Sun Sun Sun
Статистика раздачи
Автор: Nickolas3434 | Размер: 2.24 ГБ | Добавлен: 22 окт 2015
Раздают: 20    Качают: 5
Скачать торрент
Скачать торрент
Описание торрента

СообщениеДобавлено: 22 окт 2015 


Информация о фильме
Название: Тетя Маруся (01-02 из 2)
Год выхода: 1985
Жанр: киноповесть
Режиссер: Марк Брауде
В ролях: Клара Лучко, Владимир Конкин, Ирина Шевчук, А. Добролюбов, Сережа Семянов, Анатолий Ромашин, Владимир Козел, Светлана Кузьмина, Римма Маркова, Юрий Катин-Ярцев, Валентина Титова, Алексей Кожевников, Людмила Ксенофонтова, Андрей Толубеев, Владимир Сичкарь
О фильме:
По мотивам одноименной повести Галины Поповой.
Простая русская женщина, потеряв мужа и сына, оказалась в чужой семье и воспитала чужого ребенка.
...Мария более тридцати лет живет в семье Алимовых. Когда-то судьба свела ее с Ларисой Алимовой, которая из-за болезни не могла растить своего сына Петю. Мария не прошла мимо чужого горя, она стала родной и близкой в этой семье, теперь она воспитывает уже детей Петра. Даже когда к Марии пришла любовь, она не оставила Петра без своей поддержки и заботы...
Доп. информация:
Сценарист: Галина Попова (II)
Оператор: Анастасия Суханова
Композитор: Евгений Глебов
Художник: Валерий Назаров
Запись потока *.ts с наземного цифрового телеканала "Беларусь 3", ремукс в *.mkv программой VideoReDo.

Страна: СССР
Студия: Беларусьфильм
Продолжительность: 01:03:12 + 01:04:42
Файл
Кодек: AVC (H264)
Качество: DVB
Видео: MPEG4 Video (H264) 720x576 (49:36) 25fps, 2 206 Kbps
Звук: MPEG Audio 48000Hz stereo 256kbps
Код:
General
Unique ID                      : 262581539604132251228556172789503175058 (0xC58B5D706C4F362C2D9193B810032992)
Complete name                  : D:Новая  земля 2Художественные фильмыТетя Маруся (1985)Тетя Маруся (1985) 2сТетя Маруся_02_(1985).mkv
Format                         : Matroska
Format version                 : Version 2
File size                      : 1.14 GiB
Duration                       : 1h 4mn
Overall bit rate               : 2 512 Kbps
Writing application            : Lavf52.64.2
Writing library                : Lavf52.64.2
Video
ID                             : 1
Format                         : AVC
Format/Info                    : Advanced Video Codec
Format profile                 : Main@L3.0
Format settings, CABAC         : Yes
Format settings, ReFrames      : 4 frames
Format settings, GOP           : M=4, N=24
Codec ID                       : V_MPEG4/ISO/AVC
Duration                       : 1h 4mn
Bit rate                       : 2 206 Kbps
Width                          : 720 pixels
Height                         : 576 pixels
Display aspect ratio           : 4:3
Original display aspect ratio  : 4:3
Frame rate mode                : Constant
Frame rate                     : 25.000 fps
Standard                       : PAL
Color space                    : YUV
Chroma subsampling             : 4:2:0
Bit depth                      : 8 bits
Scan type                      : MBAFF
Scan order                     : Top Field First
Bits/(Pixel*Frame)             : 0.213
Stream size                    : 1 021 MiB (88%)
Default                        : Yes
Forced                         : No
Color primaries                : BT.601 PAL
Transfer characteristics       : BT.470 System B, BT.470 System G
Matrix coefficients            : BT.601
Color range                    : Limited
Audio
ID                             : 2
Format                         : MPEG Audio
Format version                 : Version 1
Format profile                 : Layer 2
Codec ID                       : A_MPEG/L2
Codec ID/Hint                  : MP2
Duration                       : 1h 4mn
Bit rate mode                  : Constant
Bit rate                       : 256 Kbps
Channel(s)                     : 2 channels
Sampling rate                  : 48.0 KHz
Compression mode               : Lossy
Stream size                    : 118 MiB (10%)
Language                       : English
Default                        : Yes
Forced                         : No


Семпл



   Похожие торренты   Торрент   Размер 
В этой теме нет новых непрочитанных сообщений. Мама, я жив! (1985) DVB от AND03AND

46 | 13

1.11 ГБ

В этой теме нет новых непрочитанных сообщений. Мама, я жив! (1985) SATRip от AND03AND

20 | 31

1.08 ГБ

В этой теме нет новых непрочитанных сообщений. Тревоги первых птиц (1985) DVB от AND03AND

12 | 3

1.48 ГБ

В этой теме нет новых непрочитанных сообщений. Морис Равель - Болеро (Валентин Елизарьев) (1985) DVB от AND03AND

17 | 5

343 МБ

В этой теме нет новых непрочитанных сообщений. Маруся [01-80] (2010) SATRip

6 | 21

36.1 ГБ

В этой теме нет новых непрочитанных сообщений. Весёлые ребята - Не волнуйтесь,тётя (2013) MP3

43 | 8

162.73 МБ

В этой теме нет новых непрочитанных сообщений. Здравствуйте, я ваша тетя! (1975) DVDRip

181 | 20

1.46 ГБ




Вы не можете начинать темы
Вы не можете отвечать на сообщения
Вы не можете редактировать свои сообщения
Вы не можете удалять свои сообщения
Вы не можете добавлять вложения

Перейти:  
Для Мосгорсуда, Роскомнадзора и рекламодателей: mosgorsud-torrent[собачка]yandex.ru
 Вход
ppkBB3cker v.2 © 2008-2014 @ PPK
[ Time : 0.041s | 14 Queries | GZIP : Off ]

Торрент трекер RUTOR.IN, Не можете зайти на rutor.org? Какой новый адрес рутор? Какое зеркало рутор? Не работает rutor.org и зеркала? Тогда наш торрент специально для вас. Rutor.in неофициальное зеркало rutor. В случае если у Вас заблокирован rutor или вдруг Вы не можете на него зайти, то Вы без труда сможете скачать бесплатно и без рекламы последние новинки кино, игр, сериалов и прочего у нас, на Rutor.in. Не нужно использовать прокси, чтобы зайти на рутор, достаточно воспользоваться нашим ресурсом. Все новые фильмы, игры, сериалы, книги и музыка за 2013 и 2014 годы через торрент бесплатно. Скачивайте фильмы в хорошем качестве, игры для пк, xbox, playstation без регистрации. У нас вы найдете новые Зарубежные сериалы и Русские сериалы 2013, 2014, 2015 годов. Оставайтесь с нами, качайте любимые фильмы, игры, сериалы, книги и музыку.