img image001 image001 image001 image001 image001 image001 image001 image001 image001 image001 image001 image001 image001 image001 image001 image001

Planets Sun Sun Sun
Статистика раздачи
Автор: Nickolas3434 | Размер: 2.03 ГБ | Добавлен: 22 окт 2015
Раздают: 188    Качают: 4
Скачать торрент
Скачать торрент
Описание торрента

СообщениеДобавлено: 22 окт 2015 


Информация о фильме
Название: Поздняя любовь
Год выхода: 1983
Жанр: Мелодрама, драма, экранизация
Режиссер: Леонид Пчёлкин
В ролях: Иннокентий Смоктуновский, Анна Каменкова, Родион Нахапетов, Елена Проклова, Евгения Ханаева, Валерий Шальных, Вячеслав Невинный, Валерий Хлевинский, Александр Юшин, Александр Мыльников, Валентина Кравченко, Виталий Комиссаров, Александр Якулов, Евгений Князев, Галина Добровольская, Владимир Гараев, Леонид Безенин
О фильме: По одноименной пьесе А.Н. Островского. О верности и коварстве, о чистоте человеческих чувств и вере в подлинное счастье. Когда-то имя стряпчего Герасима Порфирьича Маргаритова было широко известно в Москве, поскольку вёл он дела с тщанием и великой честностью. Но однажды подкупленный помощник выкрал у стряпчего и продал должнику важный денежный документ на 20 тысяч - и Маргаритов потерял доброе имя, всё нажитое имущество и вместе с малолетней дочерью Людмилой вынужден был из собственного дома в центре переселиться на окраину. Жена, которая и так хворала, померла, и пошли годы тяжелой и бедной жизни. Людмила выросла, однако, по-прежнему живет с отцом, не имея приданого, чтобы выйти замуж. Они снимают комнатку в доме небогатой вдовы, Фелицаты Антоновны Шабловой. У нее - двое взрослых сыновей, Николай и Дормедонт, оба пошли по юридической части. Младший, Дормедонт, влюбленный в Людмилу и мечтающий когда-нибудь на ней жениться, помогает Маргаритову в ведении мелких дел, которыми стряпчий нынче с трудом зарабатывает себе и дочери на хлеб. А старший, Николай, в прошлом - успешный адвокат, стал мотом, игроком и гулякой, наделал долгов, и через пару дней поведут его на цугундер, посадят в долговую яму...
Страна: СССР, ТО Экран
Продолжительность: 2 х ~ 01:13:00
Перевод: не требуется
Файл
Кодек: x264
Качество: SATRip-AVC
Видео: MPEG-4, 1800 Кбит/с, 720х570@768x570
Звук: AC3, 2 ch, 192 Кбит/с

Общее
Уникальный идентификатор : 198631820766302133726158288923639122632 (0x956F18DEF769007F8EB3B926761B8AC8)
Полное имя : R:МОИ РИПЫПоздняя любовь_1983-SATRip-AVCЛюбовь-1.mkv
Формат : Matroska
Версия формата : Version 2
Размер файла : 1,01 Гбайт
Продолжительность : 1 ч. 12 м.
Общий поток : 1993 Кбит/сек
Дата кодирования : UTC 2015-10-20 21:23:58
Программа кодирования : mkvmerge v5.8.0 ('No Sleep / Pillow') built on Sep 2 2012 15:37:04
Библиотека кодирования : libebml v1.2.3 + libmatroska v1.3.0
Видео
Идентификатор : 1
Формат : AVC
Формат/Информация : Advanced Video Codec
Профиль формата : High@L4.1
Параметр CABAC формата : Да
Параметр ReFrames формата : 14 кадров
Идентификатор кодека : V_MPEG4/ISO/AVC
Продолжительность : 1 ч. 12 м.
Битрейт : 1800 Кбит/сек
Ширина : 720 пикселей
Высота : 570 пикселей
Соотношение сторон : 4:3
Режим частоты кадров : Постоянный
Частота кадров : 25,000 кадров/сек
Цветовое пространство : YUV
Субдискретизация насыщенности : 4:2:0
Битовая глубина : 8 бит
Тип развёртки : Прогрессивная
Бит/(Пиксели*Кадры) : 0.175
Размер потока : 918 Мбайт (88%)
Библиотека кодирования : x264 core 148 r2579 73ae2d1
Настройки программы : cabac=1 / ref=14 / deblock=1:-3:-2 / analyse=0x3:0x133 / me=umh / subme=10 / psy=1 / psy_rd=1.05:0.09 / mixed_ref=1 / me_range=32 / chroma_me=1 / trellis=2 / 8x8dct=1 / cqm=0 / deadzone=21,11 / fast_pskip=0 / chroma_qp_offset=-3 / threads=12 / lookahead_threads=3 / sliced_threads=0 / nr=0 / decimate=0 / interlaced=0 / bluray_compat=0 / constrained_intra=0 / bframes=10 / b_pyramid=2 / b_adapt=2 / b_bias=0 / direct=3 / weightb=1 / open_gop=0 / weightp=2 / keyint=250 / keyint_min=25 / scenecut=40 / intra_refresh=0 / rc=2pass / mbtree=0 / bitrate=1800 / ratetol=1.0 / qcomp=0.63 / qpmin=0 / qpmax=39 / qpstep=4 / cplxblur=20.0 / qblur=0.5 / ip_ratio=1.40 / pb_ratio=1.30 / aq=1:1.00
Язык : English
Default : Да
Forced : Нет
Цветовой диапазон : Limited
Основные цвета : BT.601 PAL
Характеристики трансфера : BT.470 System B, BT.470 System G
Коэффициенты матрицы : BT.601
Аудио
Идентификатор : 2
Формат : AC-3
Формат/Информация : Audio Coding 3
Расширение режима : CM (complete main)
Параметр Endianness формата : Big
Идентификатор кодека : A_AC3
Продолжительность : 1 ч. 12 м.
Вид битрейта : Постоянный
Битрейт : 192 Кбит/сек
Каналы : 2 канала
Расположение каналов : Front: L R
Частота : 48,0 КГц
Метод сжатия : С потерями
Размер потока : 100 Мбайт (10%)
Язык : Russian
Default : Да
Forced : Нет

Релиз от:
Автор релиза:



   Похожие торренты   Торрент   Размер 
В этой теме нет новых непрочитанных сообщений. Поздняя любовь (2012) HDTVRip от MediaClub

150 | 50

1.4 ГБ

В этой теме нет новых непрочитанных сообщений. Мираж (1983) SATRip-AVC от ExKinoRay

139 | 13

4.18 ГБ

В этой теме нет новых непрочитанных сообщений. Привет с фронта (1983) SATRip-AVC от ExKinoRay

113 | 3

1.17 ГБ

В этой теме нет новых непрочитанных сообщений. Дамское танго (1983) SATRip от ExKinoRay

3 | 2

744.75 МБ

В этой теме нет новых непрочитанных сообщений. Дамское танго (1983) SATRip от ExKinoRay

3 | 0

1.46 ГБ

В этой теме нет новых непрочитанных сообщений. Тайна виллы «Грета» (1983) SATRip-AVC от EXKinoRay

66 | 4

1.41 ГБ

В этой теме нет новых непрочитанных сообщений. Приказано взять живым (1983) SATRip-AVC от ExKinoRay

121 | 24

1.26 ГБ




Вы не можете начинать темы
Вы не можете отвечать на сообщения
Вы не можете редактировать свои сообщения
Вы не можете удалять свои сообщения
Вы не можете добавлять вложения

Перейти:  
 Вход
ppkBB3cker v.2 © 2008-2014 @ PPK
[ Time : 0.041s | 17 Queries | GZIP : Off ]

cron