img image001 image001 image001 image001 image001 image001 image001 image001 image001 image001 image001 image001 image001 image001 image001

Planets Sun Sun Sun
Статистика раздачи
Автор: Nickolas3434 | Размер: 744.83 МБ | Добавлен: 22 окт 2015
Раздают: 11    Качают: 3
Скачать торрент
Скачать торрент
Описание торрента

СообщениеДобавлено: 22 окт 2015 

Страна: СССР
Производство: Мосфильм
Жанр: драма, мелодрама, военный
Год выпуска: 1969
Продолжительность: 01:28:52
Перевод: Не требуется
Cубтитры: нет
Оригинальная аудиодорожка: русский
Режиссер: Эдуард Гаврилов
В ролях:
Олег Ефремов (II), Наталья Кузнецова (III), Иван Лапиков, Николай Боярский, Александр Михайличенко, Виктор Маркин, Андрей Манке, Сергей Торкачевский...
Полный список актёров
Описание:
По мотивам одноименной повести И.Герасимова.
В декабре 1941 года Алексей Казанцев приезжает на пять дней с передовой в блокадный Ленинград и знакомится с Олей, отец которой в числе питерских добровольцев уходит на фронт. Ольга примирилась со своей болезнью и предстоящее ее не пугает. Алексей прилагает все силы для спасения девушки. Накануне возвращения Алексея на фронт Ольга становится его женой...
Текст песен Арсений Тарковский.





Источник: DVB
Качество видео: SATRip-AVC
Формат видео: MKV
Видео: 696->814x346 (2,35:1), 25 fps, H264 ~ 978 kbps avg, 0.162 bit/pixel
Аудио: 48 kHz, Dolby Digital AC3 2.0, 192 kbps
Раздача от:
Общее
Полное имя : Pyat.dney.otdyha.1969.SATRip-AVC_[New-team]_by_AVP_Studio.mkv
Формат : Matroska
Версия формата : Version 2
Размер файла : 745 Мбайт
Продолжительность : 1 ч. 28 м.
Общий поток : 1172 Кбит/сек
Дата кодирования : UTC 2015-10-20 20:09:42
Программа кодирования : mkvmerge v6.1.0 ('Old Devil') built on Mar 4 2013 09:10:42
Библиотека кодирования : libebml v1.3.0 + libmatroska v1.4.0
Видео
Идентификатор : 1
Формат : AVC
Формат/Информация : Advanced Video Codec
Профиль формата : High@L4.1
Параметр CABAC формата : Да
Параметр ReFrames формата : 10 кадров
Идентификатор кодека : V_MPEG4/ISO/AVC
Продолжительность : 1 ч. 28 м.
Битрейт : 978 Кбит/сек
Ширина : 696 пикселей
Высота : 346 пикселей
Соотношение сторон : 2,35:1
Режим частоты кадров : Постоянный
Частота кадров : 25,000 кадров/сек
Цветовое пространство : YUV
Субдискретизация насыщенности : 4:2:0
Битовая глубина : 8 бит
Тип развёртки : Прогрессивная
Бит/(Пиксели*Кадры) : 0.162
Размер потока : 608 Мбайт (82%)
Библиотека кодирования : x264 core 148 r2597 e86f3a1
Настройки программы : cabac=1 / ref=10 / deblock=1:-2:-1 / analyse=0x3:0x113 / me=umh / subme=10 / psy=1 / psy_rd=1.00:0.00 / mixed_ref=1 / me_range=32 / chroma_me=1 / trellis=2 / 8x8dct=1 / cqm=0 / deadzone=21,11 / fast_pskip=1 / chroma_qp_offset=-2 / threads=6 / lookahead_threads=1 / sliced_threads=0 / nr=0 / decimate=0 / interlaced=0 / bluray_compat=0 / constrained_intra=0 / bframes=8 / b_pyramid=2 / b_adapt=2 / b_bias=0 / direct=3 / weightb=1 / open_gop=0 / weightp=2 / keyint=250 / keyint_min=25 / scenecut=40 / intra_refresh=0 / rc=2pass / mbtree=0 / bitrate=978 / ratetol=1.0 / qcomp=0.60 / qpmin=0 / qpmax=69 / qpstep=4 / cplxblur=20.0 / qblur=0.5 / ip_ratio=1.40 / pb_ratio=1.30 / aq=1:1.00
Default : Да
Forced : Нет
Аудио
Идентификатор : 2
Формат : AC-3
Формат/Информация : Audio Coding 3
Расширение режима : CM (complete main)
Параметр Endianness формата : Big
Идентификатор кодека : A_AC3
Продолжительность : 1 ч. 28 м.
Вид битрейта : Постоянный
Битрейт : 192 Кбит/сек
Каналы : 2 канала
Расположение каналов : Front: L R
Частота : 48,0 КГц
Метод сжатия : С потерями
Размер потока : 122 Мбайт (16%)
Default : Да
Forced : Нет





   Похожие торренты   Торрент   Размер 
В этой теме нет новых непрочитанных сообщений. Пять дней отдыха (1969) SATRip от New-Team

6 | 5

745.28 МБ

В этой теме нет новых непрочитанных сообщений. Он был не один (1969) SATRip от New-Team

8 | 4

745.4 МБ

В этой теме нет новых непрочитанных сообщений. Он был не один (1969) SATRip-AVC от New-Team

27 | 7

744.54 МБ

В этой теме нет новых непрочитанных сообщений. Пять долларов в день / $5 a Day (2008) BDRip-AVC от New-Team | L2

68 | 35

1.76 ГБ

В этой теме нет новых непрочитанных сообщений. Будь моим парнем на пять минут / Nick and Norah's Infinite Playlist (2008) BDRip 720p от NoLimits-Team

5 | 1

2.19 ГБ

В этой теме нет новых непрочитанных сообщений. Будь моим парнем на пять минут / Nick and Norah's Infinite Playlist (2008) BDRip 1080p от NoLimits-Team

20 | 1

4.37 ГБ

В этой теме нет новых непрочитанных сообщений. Пять лет и один день (2012) SATRip

24 | 3

1.5 ГБ




Вы не можете начинать темы
Вы не можете отвечать на сообщения
Вы не можете редактировать свои сообщения
Вы не можете удалять свои сообщения
Вы не можете добавлять вложения

Перейти:  
Для Мосгорсуда, Роскомнадзора и рекламодателей: mosgorsud-torrent[собачка]yandex.ru
 Вход
ppkBB3cker v.2 © 2008-2014 @ PPK
[ Time : 0.091s | 15 Queries | GZIP : Off ]

Торрент трекер RUTOR.IN, Не можете зайти на rutor.org? Какой новый адрес рутор? Какое зеркало рутор? Не работает rutor.org и зеркала? Тогда наш торрент специально для вас. Rutor.in неофициальное зеркало rutor. В случае если у Вас заблокирован rutor или вдруг Вы не можете на него зайти, то Вы без труда сможете скачать бесплатно и без рекламы последние новинки кино, игр, сериалов и прочего у нас, на Rutor.in. Не нужно использовать прокси, чтобы зайти на рутор, достаточно воспользоваться нашим ресурсом. Все новые фильмы, игры, сериалы, книги и музыка за 2013 и 2014 годы через торрент бесплатно. Скачивайте фильмы в хорошем качестве, игры для пк, xbox, playstation без регистрации. У нас вы найдете новые Зарубежные сериалы и Русские сериалы 2013, 2014, 2015 годов. Оставайтесь с нами, качайте любимые фильмы, игры, сериалы, книги и музыку.