img image001 image001 image001 image001 image001 image001 image001 image001 image001 image001 image001 image001 image001 image001 image001

Planets Sun Sun Sun
Статистика раздачи
Автор: Nickolas3434 | Размер: 1.05 ГБ | Добавлен: 24 окт 2015
Раздают: 4    Качают: 8
Скачать торрент
Скачать торрент
Описание торрента

СообщениеДобавлено: 24 окт 2015 

Страна: СССР
Производство: Одесская киностудия
Жанр: драма, военный
Год выпуска: 1982
Продолжительность: 01:24:26
Перевод: Не требуется
Cубтитры: нет
Оригинальная аудиодорожка: русский
Режиссер: Юрий Черный
В ролях:
Оксана Архангельская, Владимир Вихров, Валерий Юрченко, Нина Колчина-Бунь, Николай Олейник, Анатолий Рудаков, Вера Харыбина, Сергей Пожогин, Богдан Бенюк, Анна Гуляренко, Маргарита Криницына...
Полный список актёров
Описание:
По одноимённому роману Константина Басенко.
Шла Великая Отечественная война. Марьяна Чернец, курсантка школы матросов-связистов, понравилась командиру группы Лагоде. Молодые люди полюбили друг друга. Но война разлучила их - Лагода получил назначение в десантный батальон, а Марьяна осталась в тылу. Ненадолго встретившись, они решили пожениться. Вскоре Лагода ушел в море и погиб в бою. А Марьяна продолжала воевать и верить в победу.





Источник: DVB
Качество видео: SATRip
Формат видео: AVI
Видео: 688x512 (4:3), 25 fps, XviD ~ 1645 kbps avg, 0.187 bit/pixel
Аудио: 48 kHz, Dolby Digital AC3 2.0, 192 kbps
Раздача от:
Общее
Полное имя : Zhenskie.radosti.i.pechali.1982.SATRip_[New-team]_by_AVP_Studio.avi
Формат : AVI
Формат/Информация : Audio Video Interleave
Размер файла : 1,09 Гбайт
Продолжительность : 1 ч. 24 м.
Общий поток : 1846 Кбит/сек
Программа кодирования : VirtualDubMod 1.5.10.3 | www.virtualdub-fr.org || (build 2550/release)
Библиотека кодирования : VirtualDubMod build 2550/release
Видео
Идентификатор : 0
Формат : MPEG-4 Visual
Профиль формата : Advanced Simple@L5
Параметр BVOP формата : 1
Параметр QPel формата : Нет
Параметр GMC формата : Без точки перехода
Параметр матрицы формата : Выборочная
Идентификатор кодека : XVID
Идентификатор кодека/Подсказка : XviD
Продолжительность : 1 ч. 24 м.
Битрейт : 1645 Кбит/сек
Ширина : 688 пикселей
Высота : 512 пикселей
Соотношение сторон : 4:3
Частота кадров : 25,000 кадров/сек
Цветовое пространство : YUV
Субдискретизация насыщенности : 4:2:0
Битовая глубина : 8 бит
Тип развёртки : Прогрессивная
Метод сжатия : С потерями
Бит/(Пиксели*Кадры) : 0.187
Размер потока : 993 Мбайт (89%)
Библиотека кодирования : XviD 73
Аудио
Идентификатор : 1
Формат : AC-3
Формат/Информация : Audio Coding 3
Расширение режима : CM (complete main)
Параметр Endianness формата : Big
Идентификатор кодека : 2000
Продолжительность : 1 ч. 24 м.
Вид битрейта : Постоянный
Битрейт : 192 Кбит/сек
Каналы : 2 канала
Расположение каналов : Front: L R
Частота : 48,0 КГц
Метод сжатия : С потерями
Размер потока : 116 Мбайт (10%)
Выравнивание : Разделение по промежуткам
Продолжительность промежутка : 40 мс. (1,00 видеокадр)
Время предзагрузки промежутка : 500 мс





   Похожие торренты   Торрент   Размер 
В этой теме нет новых непрочитанных сообщений. Женские радости и печали (1982) SATRip от New-Team

2 | 1

1.09 ГБ

В этой теме нет новых непрочитанных сообщений. Женские радости и печали (1982) SATRip от New-Team

21 | 6

746.15 МБ

В этой теме нет новых непрочитанных сообщений. Женские радости и печали (1982) SATRip-AVC от New-Team

1 | 0

1.09 ГБ

В этой теме нет новых непрочитанных сообщений. Женские радости и печали (1982) SATRip-AVC от New-Team

15 | 7

1.09 ГБ

В этой теме нет новых непрочитанных сообщений. Печали-радости Надежды [01-04 из 4] (2011) SATRip от КинозалSAT

14 | 11

1.95 ГБ

В этой теме нет новых непрочитанных сообщений. Понять. Простить - И в печали, и в радости [эфир от 22.08] (2011) SATRip от BigFANGroup

4 | 10

287.86 МБ

В этой теме нет новых непрочитанных сообщений. От печали до радости [01-02 из 02] (2016) HDTVRip-AVC от Files-x

132 | 26

2.88 ГБ




Вы не можете начинать темы
Вы не можете отвечать на сообщения
Вы не можете редактировать свои сообщения
Вы не можете удалять свои сообщения
Вы не можете добавлять вложения

Перейти:  
Для Мосгорсуда, Роскомнадзора и рекламодателей: mosgorsud-torrent[собачка]yandex.ru
 Вход
ppkBB3cker v.2 © 2008-2014 @ PPK
[ Time : 0.058s | 15 Queries | GZIP : Off ]

Торрент трекер RUTOR.IN, Не можете зайти на rutor.org? Какой новый адрес рутор? Какое зеркало рутор? Не работает rutor.org и зеркала? Тогда наш торрент специально для вас. Rutor.in неофициальное зеркало rutor. В случае если у Вас заблокирован rutor или вдруг Вы не можете на него зайти, то Вы без труда сможете скачать бесплатно и без рекламы последние новинки кино, игр, сериалов и прочего у нас, на Rutor.in. Не нужно использовать прокси, чтобы зайти на рутор, достаточно воспользоваться нашим ресурсом. Все новые фильмы, игры, сериалы, книги и музыка за 2013 и 2014 годы через торрент бесплатно. Скачивайте фильмы в хорошем качестве, игры для пк, xbox, playstation без регистрации. У нас вы найдете новые Зарубежные сериалы и Русские сериалы 2013, 2014, 2015 годов. Оставайтесь с нами, качайте любимые фильмы, игры, сериалы, книги и музыку.