img image001 image001 image001 image001 image001 image001 image001 image001 image001 image001 image001 image001 image001 image001 image001

Planets Sun Sun Sun
Статистика раздачи
Автор: Nickolas3434 | Размер: 745.14 МБ | Добавлен: 25 окт 2015
Раздают: 34    Качают: 6
Скачать торрент
Скачать торрент
Описание торрента

СообщениеДобавлено: 25 окт 2015 


Информация о фильме
Название: Маленькая принцесса
Год выхода: 1997
Жанр: Сказка, семейный
Режиссер: Владимир Грамматиков
В ролях: Настя Меськова, Ляна Ильницкая, Маша Машкова, Катя Михайловская, Демидова, Алла Сергеевна, Ясулович, Игорь Николаевич,Егор Грамматиков
О фильме:
Это романтическое повествование о маленькой девочке, которой пришлось пройти нелегкие испытания, происходит в конце XIX века в Лондоне. Капитан Кру привозит свою любимую дочь Сару, которую он называет "маленькой принцессой", в один из лучших и самых дорогих пансионов, чтобы она получила хорошее образование. Девочка тяжело переносит разлуку с отцом. Добрая, отзывчивая Сара быстро находит новых подруг даже среди слуг. Ее ум самостоятельность и уважительное отношение к людям покоряют всех. Однажды приходит трагическая весть - отец Сары капитан Кру умирает в Индии, не оставив дочери ни копейки. Сара нищая… Воспитанной в богатстве и достатке юной героине предстоит пройти через ненависть и унижение, голод и нищету. Но ее доброта, ум и находчивость помогают преодолеть все невзгоды. И конечно же, как в каждой рождественской сказке, все оканчивается хорошо.

Страна: Россия
Студия: Киностудия Глобус
Продолжительность: 01:28:26
Перевод: Не требуется
Файл
Кодек: XviD
Качество: DVDRip
Видео: 512x384 (1.33:1), 25 fps, XviD build 73 ~1040 kbps avg, 0.21 bit/pixel
Звук: 48 kHz, MPEG Layer 3, 2 ch, ~128.00 kbps avg
Субтитры: Отсутствует
Семпл
General
Complete name : D:Изготовление риповMalenkaja.princessa.1997.DVDrip by shkiper.avi
Format : AVI
Format/Info : Audio Video Interleave
File size : 745 MiB
Duration : 1h 28mn
Overall bit rate : 1 178 Kbps
Writing application : VirtualDubMod 1.5.10.3 | www.virtualdub-fr.org || (build 2550/release)
Writing library : VirtualDubMod build 2550/release
Video
ID : 0
Format : MPEG-4 Visual
Format profile : Advanced Simple@L5
Format settings, BVOP : 1
Format settings, QPel : No
Format settings, GMC : No warppoints
Format settings, Matrix : Custom
Codec ID : XVID
Codec ID/Hint : XviD
Duration : 1h 28mn
Bit rate : 1 040 Kbps
Width : 512 pixels
Height : 384 pixels
Display aspect ratio : 4:3
Frame rate : 25.000 fps
Color space : YUV
Chroma subsampling : 4:2:0
Bit depth : 8 bits
Scan type : Progressive
Compression mode : Lossy
Bits/(Pixel*Frame) : 0.212
Stream size : 658 MiB (88%)
Writing library : XviD 73
Audio
ID : 1
Format : MPEG Audio
Format version : Version 1
Format profile : Layer 3
Mode : Joint stereo
Mode extension : MS Stereo
Codec ID : 55
Codec ID/Hint : MP3
Duration : 1h 28mn
Bit rate mode : Constant
Bit rate : 128 Kbps
Channel(s) : 2 channels
Sampling rate : 48.0 KHz
Compression mode : Lossy
Stream size : 81.0 MiB (11%)
Alignment : Aligned on interleaves
Interleave, duration : 40 ms (1.00 video frame)
Interleave, preload duratio : 504 ms
Writing library : LAME3.99r
Encoding settings : -m j -V 4 -q 2 -lowpass 17 -b 128

Релиз от:



   Похожие торренты   Торрент   Размер 
В этой теме нет новых непрочитанных сообщений. Принцесса на бобах (1997) HDTVRip от Шкипер

60 | 14

746.54 МБ

В этой теме нет новых непрочитанных сообщений. Маленькая принцесса (1997) DVDRip

97 | 4

1.37 ГБ

В этой теме нет новых непрочитанных сообщений. Принцесса на бобах (1997) DVDRip-AVC

214 | 5

1.28 ГБ

В этой теме нет новых непрочитанных сообщений. Принцесса на бобах (1997) DVDRip от KinoZalSat

437 | 14

1.8 ГБ

В этой теме нет новых непрочитанных сообщений. Разбойник и принцесса / Lotrando a Zubejda (1997) DVDRip

9 | 5

1.36 ГБ

В этой теме нет новых непрочитанных сообщений. Принцесса и нищий / La principessa e il povero (1997) DVDRip от Киномагия l P2

9 | 4

2.77 ГБ

В этой теме нет новых непрочитанных сообщений. Принцесса / Легенда белой лошади / The Princess Stallion (1997) DVDRip от Alekxandr48

2 | 1

701.37 МБ




Вы не можете начинать темы
Вы не можете отвечать на сообщения
Вы не можете редактировать свои сообщения
Вы не можете удалять свои сообщения
Вы не можете добавлять вложения

Перейти:  
Для Мосгорсуда, Роскомнадзора и рекламодателей: mosgorsud-torrent[собачка]yandex.ru
 Вход
ppkBB3cker v.2 © 2008-2014 @ PPK
[ Time : 0.041s | 15 Queries | GZIP : Off ]

cron