img image001 image001 image001 image001 image001 image001 image001 image001 image001 image001 image001 image001 image001 image001 image001

Planets Sun Sun Sun
Статистика раздачи
Автор: Nickolas3434 | Размер: 9.29 ГБ | Добавлен: 26 окт 2015
Раздают: 691    Качают: 63
Скачать торрент
Скачать торрент
Описание торрента

СообщениеДобавлено: 26 окт 2015 


Информация о фильме
Название: Приключения Шерлока Холмса и доктора Ватсона
Год выхода: 1979-1986
Жанр: Детектив, экранизация
Режиссер: Игорь Масленников
В ролях: Василий Ливанов, Виталий Соломин, Борислав Брондуков, Рина Зелёная, Геннадий Богачёв, Мария Соломина, Фёдор Одиноков, Игорь Дмитриев, Николай Караченцов, Адольф Ильин, Виктор Артистов
О фильме: Классическая экранизация рассказов о гениальном сыщике Шерлоке Холмсе и его друге докторе Ватсоне, которые предотвращают коварные замыслы и разоблачают жестоких преступников.
Страна: СССР, Ленфильм
Продолжительность: 9 x ~ 01:08:00
Перевод: не требуется
Файл
Кодек: x264
Качество: DVDRip-AVC
Видео: MPEG-4 AVC, ~ 1580 Кбит/с, 716x574@763x574
Звук: AC3, 6 ch, 384 Кбит/с, AC3, 6 ch, 448 Кбит/с

raw [info]: 716x574p 16:15 @ 25/1 fps (cfr)
x264 [info]: using SAR=16/15
x264 [info]: using cpu capabilities: MMX2 SSE2Fast SSSE3 SSE4.2 AVX
x264 [info]: profile High, level 4.1
x264 [info]: frame I:538 Avg QP:17.42 size: 59492
x264 [info]: frame P:22545 Avg QP:19.37 size: 22054
x264 [info]: frame B:78319 Avg QP:21.01 size: 3711
x264 [info]: consecutive B-frames: 2.5% 2.3% 9.5% 14.4% 24.9% 35.2% 6.3% 2.1% 1.2% 0.9% 0.4% 0.1%
===============================================================================================================
Общее
Уникальный идентификатор : 179146982882829702987961601492382162493 (0x86C674315A5DD660B7796A846F389E3D)
Полное имя : R:МОИ РИПЫПриключения Шерлока Холмса и доктора Ватсона_1979-86-DVDRip-AVC1.Знакомство.mkv
Формат : Matroska
Версия формата : Version 2
Размер файла : 969 Мбайт
Продолжительность : 1 ч. 7 м.
Общий поток : 2004 Кбит/сек
Дата кодирования : UTC 2015-10-25 07:26:17
Программа кодирования : mkvmerge v5.8.0 ('No Sleep / Pillow') built on Sep 2 2012 15:37:04
Библиотека кодирования : libebml v1.2.3 + libmatroska v1.3.0
Attachements : cover.png / 1log.txt
Видео
Идентификатор : 1
Формат : AVC
Формат/Информация : Advanced Video Codec
Профиль формата : High@L4.1
Параметр CABAC формата : Да
Параметр ReFrames формата : 14 кадров
Идентификатор кодека : V_MPEG4/ISO/AVC
Продолжительность : 1 ч. 7 м.
Битрейт : 1580 Кбит/сек
Ширина : 716 пикселей
Высота : 574 пикселя
Соотношение сторон : 4:3
Соотношение сторон в оригинале : 4:3
Режим частоты кадров : Постоянный
Частота кадров : 25,000 кадров/сек
Цветовое пространство : YUV
Субдискретизация насыщенности : 4:2:0
Битовая глубина : 8 бит
Тип развёртки : Прогрессивная
Бит/(Пиксели*Кадры) : 0.154
Размер потока : 764 Мбайт (79%)
Библиотека кодирования : x264 core 146 r2538 121396c
Настройки программы : cabac=1 / ref=14 / deblock=1:-3:-2 / analyse=0x3:0x133 / me=umh / subme=10 / psy=1 / psy_rd=1.05:0.05 / mixed_ref=1 / me_range=32 / chroma_me=1 / trellis=2 / 8x8dct=1 / cqm=0 / deadzone=21,11 / fast_pskip=0 / chroma_qp_offset=-3 / threads=12 / lookahead_threads=3 / sliced_threads=0 / nr=0 / decimate=0 / interlaced=0 / bluray_compat=0 / constrained_intra=0 / bframes=11 / b_pyramid=2 / b_adapt=2 / b_bias=0 / direct=1 / weightb=1 / open_gop=0 / weightp=2 / keyint=250 / keyint_min=25 / scenecut=40 / intra_refresh=0 / rc=crf / mbtree=0 / crf=18.3 / qcomp=0.63 / qpmin=0 / qpmax=39 / qpstep=4 / ip_ratio=1.40 / pb_ratio=1.30 / aq=1:1.00
Язык : English
Default : Да
Forced : Нет
Цветовой диапазон : Limited
Основные цвета : BT.601 PAL
Характеристики трансфера : BT.470 System B, BT.470 System G
Коэффициенты матрицы : BT.601
Аудио
Идентификатор : 2
Формат : AC-3
Формат/Информация : Audio Coding 3
Расширение режима : CM (complete main)
Параметр Endianness формата : Big
Идентификатор кодека : A_AC3
Продолжительность : 1 ч. 7 м.
Вид битрейта : Постоянный
Битрейт : 384 Кбит/сек
Каналы : 6 каналов
Расположение каналов : Front: L C R, Side: L R, LFE
Частота : 48,0 КГц
Метод сжатия : С потерями
Размер потока : 186 Мбайт (19%)
Язык : Russian
Default : Да
Forced : Нет
Текст
Идентификатор : 3
Формат : UTF-8
Идентификатор кодека : S_TEXT/UTF8
Идентификатор кодека/Информация : UTF-8 Plain Text
Язык : Russian
Default : Нет
Forced : Нет

Знакомство. Кровавая надпись (1979)
Две замечательные серии по мотивам повести Артура Конан Дойля Красным по белому и рассказа Пестрая лента из классики российского кинематографа о приключениях Шерлока Холмса и доктора Ватсона. В первой серии Холмс и Ватсон знакомятся друг с другом и находят общий язык, а также попутно разгадывают дело о пестрой ленте, в котором негодяй отчим убивал своих падчериц, чтобы заполучить наследство. А во второй части Холмс раскрывает тайну загадочного убийства в заброшенном доме.
Король шантажа. Смертельная схватка. Охота на тигра (1980)
Король шантажа - это негодяй Чарльз Милвертон, сделавший состояние на упомянутых в названии махинациях. Желая помочь бедной женщине, не имеющей средств выкупить у Милвертона компрометирующие ее письма, Холмс и Ватсон проникают в дом мерзавца и становятся невольными свидетелями его убийства. Уничтожив картотеку дельца, друзья скрываются, но попадают в поле зрения демонического доктора Мориарти, друга и партнера покойного. В Смертельной схватке этот серьезный мистер устраивает настоящую охоту за сыщиком. В третьей серии загрустивший после гибели друга Ватсон коротает одинокие вечера у камина, но однажды в дом на Бейкер-стрит вваливается ряженый Холмс, в свою очередь, тайно намеревающийся предпринять Охоту на тигра.
Собака Баскервилей (1981) - в раздаче отсутствует, т.к. вышел на блюрее!
Сокровища Агры (1983)
Двухсерийный художественный фильм, снятый по мотивам рассказов Артура Конан Дойля Знак Четырех и Скандал в Богемии.
Описывая это дело, перо доктора Ватсона летело по бумаге стремительнее, чем стрела, пущенная из лука. Здесь есть все - таинственные обстоятельства убийства, сверкающие драгоценности, колоритные фигуры ... Но главное - в ходе расследования доктор Ватсон встречает женщину, с которой, быть может, надолго свяжет свою жизнь ...
Двадцатый век начинается (1986)
Двухсерийный заключительный художественный фильм сериала. В основе его - поздние и малоизвестные рассказы Артура Конан Дойля: Палец инженера, Чертежи Брюса Партинстона, Его прощальный поклон, объединенные темой приближающейся мировой войны и борьбы легендарного сыщика с иностранными шпионами.

Релиз от:
Автор релиза:



   Похожие торренты   Торрент   Размер 
В этой теме нет новых непрочитанных сообщений. Приключения Шерлока Холмса и Доктора Ватсона (1979-1986) DVDRip

914 | 64

9.59 ГБ

В этой теме нет новых непрочитанных сообщений. Приключения Шерлока Холмса и доктора Ватсона (1979-1986) DVDRip-AVC [Издание TWISTER]

254 | 51

12.08 ГБ

В этой теме нет новых непрочитанных сообщений. Приключения Шерлока Холмса и доктора Ватсона: Знакомство (1979) DVDRip by гаврила

83 | 6

1.66 ГБ

В этой теме нет новых непрочитанных сообщений. Приключения Шерлока Холмса и доктора Ватсона: ХХ век начинается (1986) DVDRip by гаврила

15 | 3

1.82 ГБ

В этой теме нет новых непрочитанных сообщений. Приключения Шерлока Холмса и доктора Ватсона: Собака Баскервилей (1981) DVDRip by гаврила

196 | 9

1.85 ГБ

В этой теме нет новых непрочитанных сообщений. Приключения Шерлока Холмса и доктора Ватсона: Сокровища Агры (1983) DVDRip by гаврила

35 | 3

1.77 ГБ

В этой теме нет новых непрочитанных сообщений. Приключения Шерлока Холмса и доктора Ватсона: Король шантажа (1980) DVDRip by гаврила

58 | 4

2.48 ГБ




Вы не можете начинать темы
Вы не можете отвечать на сообщения
Вы не можете редактировать свои сообщения
Вы не можете удалять свои сообщения
Вы не можете добавлять вложения

Перейти:  
Для Мосгорсуда, Роскомнадзора и рекламодателей: mosgorsud-torrent[собачка]yandex.ru
 Вход
ppkBB3cker v.2 © 2008-2014 @ PPK
[ Time : 0.050s | 16 Queries | GZIP : Off ]

cron