img image001 image001 image001 image001 image001 image001 image001 image001 image001 image001 image001 image001 image001 image001 image001

Planets Sun Sun Sun
Статистика раздачи
Автор: Nickolas3434 | Размер: 746.95 МБ | Добавлен: 27 окт 2015
Раздают: 566    Качают: 49
Скачать торрент
Скачать торрент
Описание торрента

СообщениеДобавлено: 27 окт 2015 


Информация о фильме
Название: В тесноте да не в обиде
Год выхода: 2015
Жанр: Мелодрама, комедия
Режиссер: Александр Кананович
В ролях: Валерия Арланова, Руслан Чернецкий, Александр Вергун, Ангелина Савичева, Ирина Шевчук, Виктор Васильев, Геннадий Фомин, Людмила Малеева
О фильме:
Семья Смирновых когда-то была любящей и дружной. Муж, жена, двое детей — что еще нужно для счастья? Но постепенно все пошло наперекосяк. Жена постоянно ругается с мужем, дело доходит до развода. И они бы развелись, если бы подвернулся хоть какой-нибудь вариант с разменом жилья. Но крошечную квартирку разменять невозможно. Однажды, во время очередной перебранки, семья получает известие, что к ним едет погостить состоятельная тетушка Василиса Кузьминична (тетя Вася), которая на старости лет решила объехать всю свою родню, чтобы найти идеальную семью. Только такой семье эксцентричная тетушка готова завещать все, что у нее есть. Смирновы решают разыграть «комедию для тети» и побыть пару дней идеальной семьей. Ради наследства можно и постараться, ведь это решит их жилищные проблемы.

Страна: Россия
Студия: ООО "Тесей Продакшн", МЕГА Продакшн
Продолжительность: 01:45:59
Перевод: Не требуется
Файл
Кодек: XviD
Качество: HDTVRip
Видео: 592x336 (1.76:1) (16:9), 25 fps, XviD build 73 ~847 kbps avg, 0.17 bit/pixel
Звук: 48 kHz, MPEG Layer 3, 2 ch, ~128.00 kbps avg
Субтитры: Отсутствует
Семпл
General
Complete name : D:Изготовление риповV.tesnote.da.ne.v.obide.2015.HDTVRip.by shkiper.avi
Format : AVI
Format/Info : Audio Video Interleave
File size : 747 MiB
Duration : 1h 45mn
Overall bit rate : 985 Kbps
Writing application : VirtualDubMod 1.5.10.3 | www.virtualdub-fr.org || (build 2550/release)
Writing library : VirtualDubMod build 2550/release
Video
ID : 0
Format : MPEG-4 Visual
Format profile : Advanced Simple@L5
Format settings, BVOP : 1
Format settings, QPel : No
Format settings, GMC : No warppoints
Format settings, Matrix : Custom
Codec ID : XVID
Codec ID/Hint : XviD
Duration : 1h 45mn
Bit rate : 848 Kbps
Width : 592 pixels
Height : 336 pixels
Display aspect ratio : 16:9
Frame rate : 25.000 fps
Color space : YUV
Chroma subsampling : 4:2:0
Bit depth : 8 bits
Scan type : Progressive
Compression mode : Lossy
Bits/(Pixel*Frame) : 0.170
Stream size : 643 MiB (86%)
Writing library : XviD 73
Audio
ID : 1
Format : MPEG Audio
Format version : Version 1
Format profile : Layer 3
Mode : Joint stereo
Mode extension : MS Stereo
Codec ID : 55
Codec ID/Hint : MP3
Duration : 1h 45mn
Bit rate mode : Constant
Bit rate : 128 Kbps
Channel(s) : 2 channels
Sampling rate : 48.0 KHz
Compression mode : Lossy
Stream size : 97.0 MiB (13%)
Alignment : Aligned on interleaves
Interleave, duration : 40 ms (1.00 video frame)
Interleave, preload duratio : 504 ms
Writing library : LAME3.99r
Encoding settings : -m j -V 4 -q 2 -lowpass 17 -b 128

Релиз от:



   Похожие торренты   Торрент   Размер 
В этой теме нет новых непрочитанных сообщений. В тесноте да не в обиде (2015) HDTVRip от Files-x

1394 | 66

1.37 ГБ

В этой теме нет новых непрочитанных сообщений. В тесноте да не в обиде (2015) HDTVRip-AVC от Files-x

746 | 27

1.37 ГБ

В этой теме нет новых непрочитанных сообщений. В тесноте да не в обиде (2015) HDTVRip 720p от MediaClub

465 | 23

2.43 ГБ

В этой теме нет новых непрочитанных сообщений. В тесноте да не в обиде (2015) SATRip

765 | 39

1.47 ГБ

В этой теме нет новых непрочитанных сообщений. В тесноте, да не в обиде / Crowded [01х01-04 из 13] (2016) HDTVRip | Sunshine Studio

0 | 0

914.46 МБ

В этой теме нет новых непрочитанных сообщений. В тесноте, да не в обиде / Crowded [01х01-05 из 13] (2016) HDTVRip | Sunshine Studio

0 | 0

1.12 ГБ

В этой теме нет новых непрочитанных сообщений. В тесноте, да не в обиде / Crowded [01х01-03 из 13] (2016) HDTVRip | Sunshine Studio

190 | 24

686.85 МБ




Вы не можете начинать темы
Вы не можете отвечать на сообщения
Вы не можете редактировать свои сообщения
Вы не можете удалять свои сообщения
Вы не можете добавлять вложения

Перейти:  
Для Мосгорсуда, Роскомнадзора и рекламодателей: mosgorsud-torrent[собачка]yandex.ru
 Вход
ppkBB3cker v.2 © 2008-2014 @ PPK
[ Time : 0.023s | 15 Queries | GZIP : Off ]

Торрент трекер RUTOR.IN, Не можете зайти на rutor.org? Какой новый адрес рутор? Какое зеркало рутор? Не работает rutor.org и зеркала? Тогда наш торрент специально для вас. Rutor.in неофициальное зеркало rutor. В случае если у Вас заблокирован rutor или вдруг Вы не можете на него зайти, то Вы без труда сможете скачать бесплатно и без рекламы последние новинки кино, игр, сериалов и прочего у нас, на Rutor.in. Не нужно использовать прокси, чтобы зайти на рутор, достаточно воспользоваться нашим ресурсом. Все новые фильмы, игры, сериалы, книги и музыка за 2013 и 2014 годы через торрент бесплатно. Скачивайте фильмы в хорошем качестве, игры для пк, xbox, playstation без регистрации. У нас вы найдете новые Зарубежные сериалы и Русские сериалы 2013, 2014, 2015 годов. Оставайтесь с нами, качайте любимые фильмы, игры, сериалы, книги и музыку.