img image001 image001 image001 image001 image001 image001 image001 image001 image001 image001 image001 image001 image001 image001 image001

Planets Sun Sun Sun
Статистика раздачи
Автор: Nickolas3434 | Размер: 1.48 ГБ | Добавлен: 30 окт 2015
Раздают: 12    Качают: 3
Скачать торрент
Скачать торрент
Описание торрента

СообщениеДобавлено: 30 окт 2015 


Информация о фильме
Название: Тревоги первых птиц
Год выхода: 1985
Жанр: Драма
Режиссер: Диамара Нижниковская
В ролях: Борис Борисов, Евгений Меньшов, Марина Карманова, Светлана Тормахова, Иван Сидоров, Фёдор Валиков, Софья Горшкова, Антонина Бендова, Людмила Писарева, Наталия Дмитриева, Петр Солдатов, Николай Волков, Евгения Лыжина, Е. Донец, Юля Феофилова
О фильме:
1944 год. Сержант Василий Калина после госпиталя возвращается в родную деревню Пасторонь. Но не находит деревни: отступая, немцы сжигали все дома и минировали поля. Восстановлением хозяйства руководит бывший командир партизанского отряда Григорий Горовой. Он назначает Василия председателем колхоза. Вскоре Калина узнает, что Клавдия, которую он любил до войны, считая его погибшим, вышла замуж за Горового. Сложившаяся ситуация становится нелёгким испытанием для всех троих...
Доп. информация: Запись потока *.ts с наземного цифрового телеканала "Беларусь 3", ремукс в *.mkv программой VideoReDo.


Страна: СССР
Студия: Беларусьфильм
Продолжительность: 01:24:57
Перевод: не требуется
Файл
Кодек: AVC (H264)
Качество: DVB
Видео: MPEG4 Video (H264) 720x576 (49:36) 25fps, 2 184 Kbps
Звук: MPEG Audio 48000Hz stereo 256kbps
Семпл
Код:
General
Unique ID                      : 302298495584548988824841185082737879317 (0xE36C928DFAFDF6E63808155DDE52E915)
Complete name                  : D:Новая  земля 2Художественные фильмыТревоги первых птиц (1985)Тревоги первых птиц (1985).mkv
Format                         : Matroska
Format version                 : Version 2
File size                      : 1.48 GiB
Duration                       : 1h 24mn
Overall bit rate               : 2 489 Kbps
Writing application            : Lavf52.64.2
Writing library                : Lavf52.64.2
Video
ID                             : 1
Format                         : AVC
Format/Info                    : Advanced Video Codec
Format profile                 : Main@L3.0
Format settings, CABAC         : Yes
Format settings, ReFrames      : 4 frames
Codec ID                       : V_MPEG4/ISO/AVC
Duration                       : 1h 24mn
Bit rate                       : 2 184 Kbps
Width                          : 720 pixels
Height                         : 576 pixels
Display aspect ratio           : 4:3
Original display aspect ratio  : 4:3
Frame rate mode                : Constant
Frame rate                     : 25.000 fps
Standard                       : PAL
Color space                    : YUV
Chroma subsampling             : 4:2:0
Bit depth                      : 8 bits
Scan type                      : MBAFF
Scan order                     : Top Field First
Bits/(Pixel*Frame)             : 0.211
Stream size                    : 1.30 GiB (88%)
Default                        : Yes
Forced                         : No
Color primaries                : BT.601 PAL
Transfer characteristics       : BT.470 System B, BT.470 System G
Matrix coefficients            : BT.601
Color range                    : Limited
Audio
ID                             : 2
Format                         : MPEG Audio
Format version                 : Version 1
Format profile                 : Layer 2
Codec ID                       : A_MPEG/L2
Codec ID/Hint                  : MP2
Duration                       : 1h 24mn
Bit rate mode                  : Constant
Bit rate                       : 256 Kbps
Channel(s)                     : 2 channels
Sampling rate                  : 48.0 KHz
Compression mode               : Lossy
Stream size                    : 156 MiB (10%)
Language                       : English
Default                        : Yes
Forced                         : No





   Похожие торренты   Торрент   Размер 
В этой теме нет новых непрочитанных сообщений. Мама, я жив! (1985) DVB от AND03AND

46 | 13

1.11 ГБ

В этой теме нет новых непрочитанных сообщений. Тетя Маруся (1985) DVB от AND03AND

20 | 5

2.24 ГБ

В этой теме нет новых непрочитанных сообщений. Мама, я жив! (1985) SATRip от AND03AND

20 | 31

1.08 ГБ

В этой теме нет новых непрочитанных сообщений. Морис Равель - Болеро (Валентин Елизарьев) (1985) DVB от AND03AND

17 | 5

343 МБ

В этой теме нет новых непрочитанных сообщений. Кнопка тревоги / Panic Button (2011) HDRip

0 | 2

747.17 МБ

В этой теме нет новых непрочитанных сообщений. Кнопка тревоги / Panic Button (2011) HDRip | P

33 | 12

1.46 ГБ

В этой теме нет новых непрочитанных сообщений. Кнопка тревоги / Panic Button (2011) BDRip 720p

0 | 3

4.62 ГБ




Вы не можете начинать темы
Вы не можете отвечать на сообщения
Вы не можете редактировать свои сообщения
Вы не можете удалять свои сообщения
Вы не можете добавлять вложения

Перейти:  
Для Мосгорсуда, Роскомнадзора и рекламодателей: mosgorsud-torrent[собачка]yandex.ru
 Вход
ppkBB3cker v.2 © 2008-2014 @ PPK
[ Time : 0.032s | 15 Queries | GZIP : Off ]

Торрент трекер RUTOR.IN, Не можете зайти на rutor.org? Какой новый адрес рутор? Какое зеркало рутор? Не работает rutor.org и зеркала? Тогда наш торрент специально для вас. Rutor.in неофициальное зеркало rutor. В случае если у Вас заблокирован rutor или вдруг Вы не можете на него зайти, то Вы без труда сможете скачать бесплатно и без рекламы последние новинки кино, игр, сериалов и прочего у нас, на Rutor.in. Не нужно использовать прокси, чтобы зайти на рутор, достаточно воспользоваться нашим ресурсом. Все новые фильмы, игры, сериалы, книги и музыка за 2013 и 2014 годы через торрент бесплатно. Скачивайте фильмы в хорошем качестве, игры для пк, xbox, playstation без регистрации. У нас вы найдете новые Зарубежные сериалы и Русские сериалы 2013, 2014, 2015 годов. Оставайтесь с нами, качайте любимые фильмы, игры, сериалы, книги и музыку.
cron