img image001 image001 image001 image001 image001 image001 image001 image001 image001 image001 image001 image001 image001 image001 image001

Planets Sun Sun Sun
Статистика раздачи
Автор: Nickolas3434 | Размер: 1.87 ГБ | Добавлен: 30 окт 2015
Раздают: 1192    Качают: 40
Скачать торрент
Скачать торрент
Описание торрента

СообщениеДобавлено: 30 окт 2015 


Информация о фильме
Название: Излечить страх / Лука. Святитель-хирург
Год выхода: 2013-2015
Жанр: биография, драма
Режиссер: Александр Пархоменко
Продюсер: Олег Сытник
Оператор: Сергей Рябец
Композиторы: Вадим Борисенко, Геннадий Пугачев
Художник: Сергей Бржестовский
В ролях: Виталий Безруков, Андрей Саминин, Владимир Гостюхин, Екатерина Гусева, Виктория Малекторович, Алексей Шевченков, Александр Яцко, Иван Мацкевич, Александр Числов, Татьяна Казанцева, Василий Голованов, Ольга Гришина
О фильме:
В основе фильма «Лука» - драматическая судьба выдающегося хирурга и священнослужителя - В. Ф. Войно-Ясенецкого (Святителя Луки).
1917 год. Молодой врач Валентин Войно-Ясенецкий с женой и четырьмя детьми переезжает в Ташкент, охваченный гражданской войной и интервенцией. Войно-Ясенецкий становится главным врачом городской больницы. Он не только ежедневно спасает сотни больных, оперируя под пулями постоянных уличных баталий, но и борется за жизнь любимой жены, которая умирает от туберкулеза. В самый разгар репрессий, оставшись один с четырьмя детьми на окраине бывшей империи, он становится священником. И с того времени, никогда не изменяя ни скальпелю, ни кресту, он проходит через все испытания ссылок и лишений, леча душу и тело.
Доп. информация:
Фильм снимали по благословению Предстоятелей Украинской, Белорусской и Элладской Православных Церквей.
В основе сюжета фильма — судьба выдающегося врача ХХ века и священнослужителя, лауреата Сталинской премии и архиепископа, советского ученого и проповедника, ссыльного каторжника и богослова, автора 55 научных трудов и 15 томов проповедей.
Святитель Лука — человек, научные труды которого и в наши дни остаются настольными книгами хирургов, а картины могли украсить лучшие галереи мира.
НАГРАДЫ, НОМИНАЦИИ, ФЕСТИВАЛИ:
• 2013г. - 1-я премия конкурса игрового кино на XI МКФ "Покров" в Киеве.
• 2013г. - Приз за лучшую мужскую роль на XI МКФ "Покров" в Киеве (Виталий Безруков).
• 2013г. - Специальный приз президента Республики Беларусь А. Лукашенко, режиссеру-постановщику А.Пархоменко,за гуманизм и духовность в кино на XX МКФ "Лістапад" в Минске.
• 2013г. - Специальный приз Светланы Медведевой за глубокое раскрытие темы "Воплощение святости на экране" на ХХ МКФ "Лучезарный ангел" в Москве.
• 2013г. - Гран-при на VIII МКФ "Крест Святого Андрея" в Тбилиси (Александр Пархоменко).
• 2013г. - Приз Христианской киноассоциации за выбор героя и бережное отношение к личности Святого врача преданного Богу и профессии на VIII МКФ "Крест Святого Андрея" в Тбилиси (Александр Пархоменко).
Запись потока *.ts с наземного цифрового телеканала "Беларусь 1", ремукс в *.mkv программой VideoReDo.
Благодарность: большое спасибо Сергею (он же znahar) за оказанную помощь.


Страна: Республика Беларусь, Украина
Студия: Патриот-Фильм, Nonstop MEDIA
Продолжительность: 01:45:39
Язык: русский
Файл
Кодек: AVC (H264)
Качество: DVB
Видео: MPEG4 Video (H264) 720x576 (49:36) 25fps, 2 223 Kbps
Звук: MPEG Audio 48000Hz stereo 256kbps
Семпл
Код:
General
Unique ID                      : 183735356073755154100674989461778787593 (0x8A3A247503E171387EA0D4A322C4ED09)
Complete name                  : D:Новая  земля 2Художественные фильмыИзлечить страх (2013)Излечить страх (2013).mkv
Format                         : Matroska
Format version                 : Version 2
File size                      : 1.87 GiB
Duration                       : 1h 45mn
Overall bit rate               : 2 529 Kbps
Writing application            : Lavf52.64.2
Writing library                : Lavf52.64.2
Video
ID                             : 1
Format                         : AVC
Format/Info                    : Advanced Video Codec
Format profile                 : Main@L3.0
Format settings, CABAC         : Yes
Format settings, ReFrames      : 4 frames
Codec ID                       : V_MPEG4/ISO/AVC
Duration                       : 1h 45mn
Bit rate                       : 2 223 Kbps
Width                          : 720 pixels
Height                         : 576 pixels
Display aspect ratio           : 4:3
Original display aspect ratio  : 4:3
Frame rate mode                : Constant
Frame rate                     : 25.000 fps
Standard                       : PAL
Color space                    : YUV
Chroma subsampling             : 4:2:0
Bit depth                      : 8 bits
Scan type                      : MBAFF
Scan order                     : Top Field First
Bits/(Pixel*Frame)             : 0.214
Stream size                    : 1.64 GiB (88%)
Default                        : Yes
Forced                         : No
Color primaries                : BT.601 PAL
Transfer characteristics       : BT.470 System B, BT.470 System G
Matrix coefficients            : BT.601
Color range                    : Limited
Audio
ID                             : 2
Format                         : MPEG Audio
Format version                 : Version 1
Format profile                 : Layer 2
Codec ID                       : A_MPEG/L2
Codec ID/Hint                  : MP2
Duration                       : 1h 45mn
Bit rate mode                  : Constant
Bit rate                       : 256 Kbps
Channel(s)                     : 2 channels
Sampling rate                  : 48.0 KHz
Compression mode               : Lossy
Stream size                    : 193 MiB (10%)
Language                       : English
Default                        : Yes
Forced                         : No




   Похожие торренты   Торрент   Размер 
В этой теме нет новых непрочитанных сообщений. Излечить страх (2013) WEBRip от torrentfilm

1372 | 80

711.19 МБ

В этой теме нет новых непрочитанных сообщений. Страх воды / Страх перед водой / La peur de l'eau (2011) DVDRip | L2

291 | 35

1.46 ГБ

В этой теме нет новых непрочитанных сообщений. Внутренний страх / В тисках страха / Страх внутри / The Fear Inside (1992) DVDRip | A

37 | 9

732.39 МБ

В этой теме нет новых непрочитанных сообщений. Страх 2: Хэллоуин / Страх 2: Воскрешение / The Fear 2: Resurrection / Fear 2: Halloween Night (1999) DVDRip | А

4 | 3

1.45 ГБ

В этой теме нет новых непрочитанных сообщений. Страх в твоем доме [01-28 из 60] (2013) WEB-DL.(1080р).Generalfilm

1 | 19

22.27 ГБ

В этой теме нет новых непрочитанных сообщений. Евгений Грин - Как убрать страх подхода к девушке (2013) CAMRip

163 | 36

2.23 ГБ

В этой теме нет новых непрочитанных сообщений. Торжественное открытие Площади Гос. флага Республики Беларусь (02.07.2013) (2013) SATRip от AND03AND

6 | 11

1.42 ГБ




Вы не можете начинать темы
Вы не можете отвечать на сообщения
Вы не можете редактировать свои сообщения
Вы не можете удалять свои сообщения
Вы не можете добавлять вложения

Перейти:  
Для Мосгорсуда, Роскомнадзора и рекламодателей: mosgorsud-torrent[собачка]yandex.ru
 Вход
ppkBB3cker v.2 © 2008-2014 @ PPK
[ Time : 0.027s | 15 Queries | GZIP : On ]

Торрент трекер RUTOR.IN, Не можете зайти на rutor.org? Какой новый адрес рутор? Какое зеркало рутор? Не работает rutor.org и зеркала? Тогда наш торрент специально для вас. Rutor.in неофициальное зеркало rutor. В случае если у Вас заблокирован rutor или вдруг Вы не можете на него зайти, то Вы без труда сможете скачать бесплатно и без рекламы последние новинки кино, игр, сериалов и прочего у нас, на Rutor.in. Не нужно использовать прокси, чтобы зайти на рутор, достаточно воспользоваться нашим ресурсом. Все новые фильмы, игры, сериалы, книги и музыка за 2013 и 2014 годы через торрент бесплатно. Скачивайте фильмы в хорошем качестве, игры для пк, xbox, playstation без регистрации. У нас вы найдете новые Зарубежные сериалы и Русские сериалы 2013, 2014, 2015 годов. Оставайтесь с нами, качайте любимые фильмы, игры, сериалы, книги и музыку.