img image001 image001 image001 image001 image001 image001 image001 image001 image001 image001 image001 image001 image001 image001 image001

Planets Sun Sun Sun
Статистика раздачи
Автор: Nickolas3434 | Размер: 2.08 ГБ | Добавлен: 01 ноя 2015
Раздают: 86    Качают: 14
Скачать торрент
Скачать торрент
Описание торрента

СообщениеДобавлено: 01 ноя 2015 


Информация о фильме
Название: Раба любви
Год выхода: 1975
Жанр: Драма
Режиссер: Никита Михалков
В ролях: Елена Соловей, Александр Калягин, Родион Нахапетов, Олег Басилашвили, Константин Григорьев, Николай Пастухов, Вера Кузнецова, Готлиб Ронинсон, Инна Ульянова, Евгений Стеблов, Никита Михалков, Владимир Комиссаров, Михаил Чигарев, Александр Яковлев, Вадим Вильский, Александр Адабашьян, Николай Юдин, Юрий Богатырёв, Борис Галкин
О фильме: 20-е годы ХХ столетия. Гражданская война в России. В небольшом южном городке, занятом войсками белой гвардией, московская киногруппа снимает салонную драму под названием "Раба любви". На главные роли приглашены звезда немого кино Ольга Вознесенская (прототип этого персонажа - знаменитая русская актриса начала века Вера Холодная) и не менее знаменитый киноактер Максаков. Оператор группы Виктор Потоцкий нелегально ведет документальную съемку арестов и расстрелов в городе, которые проводит контрразведка белой армии. Виктор влюблен в Ольгу и пытается объяснить этой роскошной, далекой от политики, женщине, чудовищность происходящих в России событий.
Страна: СССР, Мосфильм
Продолжительность: 01:29:31
Перевод: не требуется
Файл
Кодек: x264
Качество: DVDRip-AVC
Видео: MPEG-4 AVC, 2780 Кбит/с, 718x576@765x576
Звук: AC3, 6 ch, 448 Кбит/с, AC3, 1 ch, 96 kbps
Субтитры:Русские

raw [info]: 718x576p 16:15 @ 25/1 fps (cfr)
x264 [info]: using SAR=16/15
x264 [info]: using cpu capabilities: MMX2 SSE2Fast SSSE3 SSE4.2 AVX
x264 [info]: profile High, level 4.1
x264 [info]: frame I:699 Avg QP:19.29 size: 67832
x264 [info]: frame P:30742 Avg QP:20.76 size: 30660
x264 [info]: frame B:102839 Avg QP:22.88 size: 8523
===============================================================================================================
Общее
Уникальный идентификатор : 174330295041493040826920487928138864021 (0x8326CB25A97C41B2985FB18D9F689595)
Полное имя : D:Раба любви_1975-DVDRip-AVC.mkv
Формат : Matroska
Версия формата : Version 2
Размер файла : 2,08 Гбайт
Продолжительность : 1 ч. 29 м.
Общий поток : 3326 Кбит/сек
Дата кодирования : UTC 2015-10-30 19:46:42
Программа кодирования : mkvmerge v5.8.0 ('No Sleep / Pillow') built on Sep 2 2012 15:37:04
Библиотека кодирования : libebml v1.2.3 + libmatroska v1.3.0
Видео
Идентификатор : 1
Формат : AVC
Формат/Информация : Advanced Video Codec
Профиль формата : High@L4.1
Параметр CABAC формата : Да
Параметр ReFrames формата : 12 кадров
Идентификатор кодека : V_MPEG4/ISO/AVC
Продолжительность : 1 ч. 29 м.
Битрейт : 2716 Кбит/сек
Ширина : 718 пикселей
Высота : 576 пикселей
Соотношение сторон : 4:3
Соотношение сторон в оригинале : 4:3
Режим частоты кадров : Постоянный
Частота кадров : 25,000 кадров/сек
Цветовое пространство : YUV
Субдискретизация насыщенности : 4:2:0
Битовая глубина : 8 бит
Тип развёртки : Прогрессивная
Бит/(Пиксели*Кадры) : 0.263
Размер потока : 1,70 Гбайт (82%)
Библиотека кодирования : x264 core 146 r2538 121396c
Настройки программы : cabac=1 / ref=12 / deblock=1:-3:-2 / analyse=0x3:0x133 / me=umh / subme=10 / psy=1 / psy_rd=1.05:0.07 / mixed_ref=1 / me_range=32 / chroma_me=1 / trellis=2 / 8x8dct=1 / cqm=0 / deadzone=21,11 / fast_pskip=1 / chroma_qp_offset=-3 / threads=12 / lookahead_threads=2 / sliced_threads=0 / nr=0 / decimate=1 / interlaced=0 / bluray_compat=0 / constrained_intra=0 / bframes=8 / b_pyramid=2 / b_adapt=2 / b_bias=0 / direct=1 / weightb=1 / open_gop=0 / weightp=2 / keyint=250 / keyint_min=25 / scenecut=40 / intra_refresh=0 / rc=crf / mbtree=0 / crf=17.8 / qcomp=0.63 / qpmin=0 / qpmax=39 / qpstep=4 / ip_ratio=1.40 / pb_ratio=1.30 / aq=1:1.00
Язык : English
Default : Да
Forced : Нет
Цветовой диапазон : Limited
Основные цвета : BT.601 PAL
Характеристики трансфера : BT.470 System B, BT.470 System G
Коэффициенты матрицы : BT.601
Аудио #1
Идентификатор : 2
Формат : AC-3
Формат/Информация : Audio Coding 3
Расширение режима : CM (complete main)
Параметр Endianness формата : Big
Идентификатор кодека : A_AC3
Продолжительность : 1 ч. 29 м.
Вид битрейта : Постоянный
Битрейт : 448 Кбит/сек
Каналы : 6 каналов
Расположение каналов : Front: L C R, Side: L R, LFE
Частота : 48,0 КГц
Метод сжатия : С потерями
Задержка видео : 927 мс.
Размер потока : 287 Мбайт (13%)
Язык : Russian
Default : Да
Forced : Нет
Аудио #2
Идентификатор : 3
Формат : AC-3
Формат/Информация : Audio Coding 3
Расширение режима : CM (complete main)
Параметр Endianness формата : Big
Идентификатор кодека : A_AC3
Продолжительность : 1 ч. 29 м.
Вид битрейта : Постоянный
Битрейт : 96,0 Кбит/сек
Каналы : 1 канал
Расположение каналов : Front: C
Частота : 48,0 КГц
Метод сжатия : С потерями
Задержка видео : 927 мс.
Размер потока : 61,5 Мбайт (3%)
Язык : Russian
Default : Нет
Forced : Нет
Текст
Идентификатор : 4
Формат : UTF-8
Идентификатор кодека : S_TEXT/UTF8
Идентификатор кодека/Информация : UTF-8 Plain Text
Язык : Russian
Default : Нет
Forced : Нет

Релиз от:
Автор релиза:



   Похожие торренты   Торрент   Размер 
В этой теме нет новых непрочитанных сообщений. Раба любви (1975) DVDRip

286 | 17

1.46 ГБ

В этой теме нет новых непрочитанных сообщений. Раба любви Елена Соловей (2011) IPTVRip от Files-x

0 | 4

458.75 МБ

В этой теме нет новых непрочитанных сообщений. Переходим к любви (1975) DVDRip

27 | 7

1.45 ГБ

В этой теме нет новых непрочитанных сообщений. Жить ради любви / Conviene far bene l'amore (1975) DVDRip | A

111 | 28

1.45 ГБ

В этой теме нет новых непрочитанных сообщений. Дозор любви приходит ровно в полночь / A mezzanotte va la ronda del piacere (1975) DVDRip-AVC

29 | 8

1.35 ГБ

В этой теме нет новых непрочитанных сообщений. Строговы [01-08 из 08] (1975) DVDRip от ExKinoRay

52 | 39

5.38 ГБ

В этой теме нет новых непрочитанных сообщений. Старший сын (1975) DVDRip-AVC от ExKinoRay

138 | 8

2.15 ГБ




Вы не можете начинать темы
Вы не можете отвечать на сообщения
Вы не можете редактировать свои сообщения
Вы не можете удалять свои сообщения
Вы не можете добавлять вложения

Перейти:  
Для Мосгорсуда, Роскомнадзора и рекламодателей: mosgorsud-torrent[собачка]yandex.ru
 Вход
ppkBB3cker v.2 © 2008-2014 @ PPK
[ Time : 0.064s | 14 Queries | GZIP : Off ]

Торрент трекер RUTOR.IN, Не можете зайти на rutor.org? Какой новый адрес рутор? Какое зеркало рутор? Не работает rutor.org и зеркала? Тогда наш торрент специально для вас. Rutor.in неофициальное зеркало rutor. В случае если у Вас заблокирован rutor или вдруг Вы не можете на него зайти, то Вы без труда сможете скачать бесплатно и без рекламы последние новинки кино, игр, сериалов и прочего у нас, на Rutor.in. Не нужно использовать прокси, чтобы зайти на рутор, достаточно воспользоваться нашим ресурсом. Все новые фильмы, игры, сериалы, книги и музыка за 2013 и 2014 годы через торрент бесплатно. Скачивайте фильмы в хорошем качестве, игры для пк, xbox, playstation без регистрации. У нас вы найдете новые Зарубежные сериалы и Русские сериалы 2013, 2014, 2015 годов. Оставайтесь с нами, качайте любимые фильмы, игры, сериалы, книги и музыку.