img image001 image001 image001 image001 image001 image001 image001 image001 image001 image001 image001 image001 image001 image001 image001

Planets Sun Sun Sun
Статистика раздачи
Автор: Nickolas3434 | Размер: 1.46 ГБ | Добавлен: 01 ноя 2015
Раздают: 451    Качают: 44
Скачать торрент
Скачать торрент
Описание торрента

СообщениеДобавлено: 01 ноя 2015 


Информация о фильме
Название: Покровские ворота
Год выхода: 1982
Жанр: Драма, мелодрама, комедия
Режиссёр: Михаил Козаков
В ролях: Олег Меньшиков, Леонид Броневой, Инна Ульянова, Софья Пилявская, Анатолий Равикович, Виктор Борцов, Елена Коренева, Татьяна Догилева, Елизавета Никищихина, Игорь Дмитриев, Евгений Моргунов, Наталья Крачковская, Валентина Воилкова, Эммануил Геллер, Михаил Козаков, Алексей Коняшин, Леонид Машков, Владимир Пицек
О фильме: Если вы развелись, и ваша бывшая жена снова вышла замуж - это еще не значит, что вы свободны. Если вы пригласили девушку на свидание, и она пришла, это еще не значит, что она будет вашей. Но если при этом ваш сосед по коммуналке - студент Костик, то можете быть уверены - все будет хорошо...

Страна: СССР
Студия: Мосфильм
Продолжительность: 02:19:43
Перевод: Не требуется (оригинальный)
Файл
Формат: avi
Качество: BDRip (Blu-ray)
Видео: XviD, 640х464, 23.976fps, 1355kbps
Аудио: MPEG Layer 3, 2ch, 48000Hz, 128kbps

General
Complete name : Pokrovskie.Vorota.1982.O.BDRip.1400.CurHaJI.avi
Format : AVI
Format/Info : Audio Video Interleave
File size : 1.46 GiB
Duration : 2h 19mn
Overall bit rate : 1 493 Kbps
Movie name : Pokrovskie.Vorota.1982.O.BDRip.1400.CurHaJI
Writing application : Lavf53.13.0
Writing library : VirtualDub build 35491/release
Video
ID : 0
Format : MPEG-4 Visual
Format profile : Advanced Simple@L5
Format settings, BVOP : 2
Format settings, QPel : No
Format settings, GMC : No warppoints
Format settings, Matrix : Custom
Codec ID : XVID
Codec ID/Hint : XviD
Duration : 2h 19mn
Bit rate : 1 355 Kbps
Width : 640 pixels
Height : 464 pixels
Display aspect ratio : 1.379
Frame rate : 23.976 fps
Color space : YUV
Chroma subsampling : 4:2:0
Bit depth : 8 bits
Scan type : Progressive
Compression mode : Lossy
Bits/(Pixel*Frame) : 0.190
Stream size : 1.32 GiB (91%)
Writing library : XviD 64
Audio
ID : 1
Format : MPEG Audio
Format version : Version 1
Format profile : Layer 3
Codec ID : 55
Codec ID/Hint : MP3
Duration : 2h 19mn
Bit rate mode : Constant
Bit rate : 128 Kbps
Channel(s) : 2 channels
Sampling rate : 48.0 KHz
Compression mode : Lossy
Delay relative to video : 8ms
Stream size : 128 MiB (9%)
Alignment : Split accross interleaves
Interleave, duration : 42 ms (1.00 video frame)
Interleave, preload duration : 500 ms
Writing library : LAME3.99.1


Релиз от:



   Похожие торренты   Торрент   Размер 
В этой теме нет новых непрочитанных сообщений. Покровские ворота (1982) BDRip от HQCLUB

366 | 17

2.18 ГБ

В этой теме нет новых непрочитанных сообщений. Покровские ворота (1982) BDRip от MediaClub

22 | 5

2.26 ГБ

В этой теме нет новых непрочитанных сообщений. Покровские ворота (1982) BDRip-AVC от MediaClub

67 | 7

2.98 ГБ

В этой теме нет новых непрочитанных сообщений. Покровские ворота (1982) BDRip 720p от MediaClub

38 | 12

5.12 ГБ

В этой теме нет новых непрочитанных сообщений. Покровские ворота (1982) BDRip 1080p от HDClub

56 | 10

12.97 ГБ

В этой теме нет новых непрочитанных сообщений. Покровские ворота (1982) BDRip 720p от HQ-ViDEO

12 | 8

9.08 ГБ

В этой теме нет новых непрочитанных сообщений. Покровские ворота (2 серии из 2) (1982) BDRip от MediaClub | КПК

113 | 171

630.39 МБ




Вы не можете начинать темы
Вы не можете отвечать на сообщения
Вы не можете редактировать свои сообщения
Вы не можете удалять свои сообщения
Вы не можете добавлять вложения

Перейти:  
Для Мосгорсуда, Роскомнадзора и рекламодателей: mosgorsud-torrent[собачка]yandex.ru
 Вход
ppkBB3cker v.2 © 2008-2014 @ PPK
[ Time : 0.052s | 13 Queries | GZIP : Off ]
CGP output time : 0.035s | 7 Queries | GZIP : Off

Торрент трекер RUTOR.IN, Не можете зайти на rutor.org? Какой новый адрес рутор? Какое зеркало рутор? Не работает rutor.org и зеркала? Тогда наш торрент специально для вас. Rutor.in неофициальное зеркало rutor. В случае если у Вас заблокирован rutor или вдруг Вы не можете на него зайти, то Вы без труда сможете скачать бесплатно и без рекламы последние новинки кино, игр, сериалов и прочего у нас, на Rutor.in. Не нужно использовать прокси, чтобы зайти на рутор, достаточно воспользоваться нашим ресурсом. Все новые фильмы, игры, сериалы, книги и музыка за 2013 и 2014 годы через торрент бесплатно. Скачивайте фильмы в хорошем качестве, игры для пк, xbox, playstation без регистрации. У нас вы найдете новые Зарубежные сериалы и Русские сериалы 2013, 2014, 2015 годов. Оставайтесь с нами, качайте любимые фильмы, игры, сериалы, книги и музыку.