img image001 image001 image001 image001 image001 image001 image001 image001 image001 image001 image001 image001 image001 image001 image001

Planets Sun Sun Sun
Статистика раздачи
Автор: PriZraK | Размер: 745.28 МБ | Добавлен: 04 ноя 2015
Раздают: 4    Качают: 3
Скачать торрент
Скачать торрент
Описание торрента

СообщениеДобавлено: 04 ноя 2015 

Страна: СССР
Производство: Мосфильм

Жанр: драма, мелодрама, военный
Год выпуска: 1969
Продолжительность: 01:28:52

Перевод: Не требуется
Cубтитры: нет
Оригинальная аудиодорожка: русский

Режиссер: Эдуард Гаврилов

В ролях:
Олег Ефремов (II), Наталья Кузнецова (III), Иван Лапиков, Николай Боярский, Александр Михайличенко, Виктор Маркин, Андрей Манке, Сергей Торкачевский...
Полный список актёров

Описание:
По мотивам одноименной повести И.Герасимова.
В декабре 1941 года Алексей Казанцев приезжает на пять дней с передовой в блокадный Ленинград и знакомится с Олей, отец которой в числе питерских добровольцев уходит на фронт. Ольга примирилась со своей болезнью и предстоящее ее не пугает. Алексей прилагает все силы для спасения девушки. Накануне возвращения Алексея на фронт Ольга становится его женой...
Текст песен Арсений Тарковский.





Источник: DVB
Качество видео: SATRip
Формат видео: AVI

Видео: 688x288 (2,40:1), 25 fps, XviD ~ 971 kbps avg, 0.196 bit/pixel
Аудио: 48 kHz, Dolby Digital AC3 2.0, 192 kbps

Раздача от:
Общее
Полное имя : Pyat.dney.otdyha.1969.SATRip_[New-team]_by_AVP_Studio.avi
Формат : AVI
Формат/Информация : Audio Video Interleave
Размер файла : 745 Мбайт
Продолжительность : 1 ч. 28 м.
Общий поток : 1173 Кбит/сек
Программа кодирования : VirtualDubMod 1.5.10.3 | www.virtualdub-fr.org || (build 2550/release)
Библиотека кодирования : VirtualDubMod build 2550/release

Видео
Идентификатор : 0
Формат : MPEG-4 Visual
Профиль формата : Advanced Simple@L5
Параметр BVOP формата : 1
Параметр QPel формата : Нет
Параметр GMC формата : Без точки перехода
Параметр матрицы формата : Выборочная
Идентификатор кодека : XVID
Идентификатор кодека/Подсказка : XviD
Продолжительность : 1 ч. 28 м.
Битрейт : 971 Кбит/сек
Ширина : 688 пикселей
Высота : 288 пикселей
Соотношение сторон : 2,40:1
Частота кадров : 25,000 кадров/сек
Цветовое пространство : YUV
Субдискретизация насыщенности : 4:2:0
Битовая глубина : 8 бит
Тип развёртки : Прогрессивная
Метод сжатия : С потерями
Бит/(Пиксели*Кадры) : 0.196
Размер потока : 617 Мбайт (83%)
Библиотека кодирования : XviD 73

Аудио
Идентификатор : 1
Формат : AC-3
Формат/Информация : Audio Coding 3
Расширение режима : CM (complete main)
Параметр Endianness формата : Big
Идентификатор кодека : 2000
Продолжительность : 1 ч. 28 м.
Вид битрейта : Постоянный
Битрейт : 192 Кбит/сек
Каналы : 2 канала
Расположение каналов : Front: L R
Частота : 48,0 КГц
Метод сжатия : С потерями
Размер потока : 122 Мбайт (16%)
Выравнивание : Разделение по промежуткам
Продолжительность промежутка : 40 мс. (1,00 видеокадр)
Время предзагрузки промежутка : 500 мс





   Похожие торренты   Торрент   Размер 
В этой теме нет новых непрочитанных сообщений. Пять дней отдыха (1969) SATRip-AVC от New-Team

8 | 1

744.83 МБ

В этой теме нет новых непрочитанных сообщений. Он был не один (1969) SATRip от New-Team

2 | 2

745.4 МБ

В этой теме нет новых непрочитанных сообщений. Он был не один (1969) SATRip-AVC от New-Team

15 | 5

744.54 МБ

В этой теме нет новых непрочитанных сообщений. Пять долларов в день / $5 a Day (2008) BDRip-AVC от New-Team | L2

40 | 22

1.76 ГБ

В этой теме нет новых непрочитанных сообщений. Пять дней / Пять дней в Милане / Le cinque giornate (1973) DVDRip | P2

12 | 0

1.37 ГБ

В этой теме нет новых непрочитанных сообщений. Будь моим парнем на пять минут / Nick and Norah's Infinite Playlist (2008) BDRip 1080p от NoLimits-Team

20 | 1

4.37 ГБ

В этой теме нет новых непрочитанных сообщений. Будь моим парнем на пять минут / Nick and Norah's Infinite Playlist (2008) BDRip 720p от NoLimits-Team

9 | 2

2.19 ГБ




Вы не можете начинать темы
Вы не можете отвечать на сообщения
Вы не можете редактировать свои сообщения
Вы не можете удалять свои сообщения
Вы не можете добавлять вложения

Перейти:  
Для Мосгорсуда, Роскомнадзора и рекламодателей: mosgorsud-torrent[собачка]yandex.ru
 Вход
ppkBB3cker v.2 © 2008-2014 @ PPK
[ Time : 0.041s | 16 Queries | GZIP : Off ]

cron