img image001 image001 image001 image001 image001 image001 image001 image001 image001 image001 image001 image001 image001 image001 image001

Planets Sun Sun Sun
Статистика раздачи
Автор: PriZraK | Размер: 1.16 ГБ | Добавлен: 04 ноя 2015
Раздают: 20    Качают: 4
Скачать торрент
Скачать торрент
Описание торрента

СообщениеДобавлено: 04 ноя 2015 



Информация о фильме
Название: Остаюсь с вами
Год выхода: 1981
Жанр: Биографический, детский
Режиссер: Игорь Вознесенский

В ролях: Анатолий Грачев, Андрей Ростоцкий, Дима Гайдар, Леонид Марков, Николай Гринько, Дима Замулин, Анна Викторова, Дима Миллер, Оля Вознесенская, Оля Плетюшкина, Кирилл Горлов, Арнис Лицитис, Елена Валаева, Юрий Саранцев, Юрий Мартынов, Николай Сморчков, Николай Смирнов, Василий Долбитиков, Игорь Пушкарев, Николай Мерзликин, Юрий Чекулаев, Татьяна Микрикова, Вера Петрова, Юрий Сорокин, Андрей Леонов

О фильме:
# 1. Фильм рассказывает о последних годах жизни писателя Аркадия Гайдара. Писатель работает над новыми книгами, в воспоминаниях возвращаясь к концу Гражданской войны, когда его комиссовали из армии. Завершается фильм гибелью Гайдара во время Великой Отечественной войны.

# 2. О последних днях Аркадия Гайдара. В фильм вошли эпизоды из его жизни перед началом войны, когда Гайдар заканчивал работу над книгой «Комендант снежной крепости», а также рассказ о его работе на фронте в качестве корреспондента "Комсомольской правды" и пребывании в партизанском отряде...

Доп. информация:
Киноповесть посвященная 60-летию Всесоюзной пионерской организации имени Владимира Ильича Ленина. Фильм снят на пленке Шоткинского п/о "Свема" и Казанского п/о "Тасма".

Запись потока *.ts с наземного цифрового телеканала "Беларусь 3", ремукс в *.mkv программой VideoReDo.





Страна: СССР
Студия: Центральная киностудия детских и юношеских фильмов имени М. Горького (Ялтинский филиал)
Продолжительность: 01:03:52
Перевод: не требует

Файл
Кодек: AVC (H264)
Качество: DVB
Видео: MPEG4 Video (H264) 720x576 (49:36) 25fps, 2 284 Kbps
Звук: MPEG Audio 48000Hz stereo 256kbps

Семпл

Код:
General
Unique ID                      : 2193225996045942623167350033576709214 (0x1A66663E9DC81CF7BFB878DC2994C5E)
Complete name                  : D:Новая  земля 2Художественные фильмыОстаюсь с вами (1981)Остаюсь с вами (1981).mkv
Format                         : Matroska
Format version                 : Version 2
File size                      : 1.16 GiB
Duration                       : 1h 3mn
Overall bit rate               : 2 592 Kbps
Writing application            : Lavf52.64.2
Writing library                : Lavf52.64.2

Video
ID                             : 1
Format                         : AVC
Format/Info                    : Advanced Video Codec
Format profile                 : Main@L3.0
Format settings, CABAC         : Yes
Format settings, ReFrames      : 4 frames
Format settings, GOP           : M=4, N=24
Codec ID                       : V_MPEG4/ISO/AVC
Duration                       : 1h 3mn
Bit rate                       : 2 284 Kbps
Width                          : 720 pixels
Height                         : 576 pixels
Display aspect ratio           : 4:3
Original display aspect ratio  : 4:3
Frame rate mode                : Constant
Frame rate                     : 25.000 fps
Standard                       : PAL
Color space                    : YUV
Chroma subsampling             : 4:2:0
Bit depth                      : 8 bits
Scan type                      : MBAFF
Scan order                     : Top Field First
Bits/(Pixel*Frame)             : 0.220
Stream size                    : 1.02 GiB (88%)
Default                        : Yes
Forced                         : No
Color primaries                : BT.601 PAL
Transfer characteristics       : BT.470 System B, BT.470 System G
Matrix coefficients            : BT.601
Color range                    : Limited

Audio
ID                             : 2
Format                         : MPEG Audio
Format version                 : Version 1
Format profile                 : Layer 2
Codec ID                       : A_MPEG/L2
Codec ID/Hint                  : MP2
Duration                       : 1h 3mn
Bit rate mode                  : Constant
Bit rate                       : 256 Kbps
Channel(s)                     : 2 channels
Sampling rate                  : 48.0 KHz
Compression mode               : Lossy
Stream size                    : 117 MiB (10%)
Language                       : English
Default                        : Yes
Forced                         : No






   Похожие торренты   Торрент   Размер 
В этой теме нет новых непрочитанных сообщений. Против течения (1981) DVB от AND03AND

73 | 4

1.21 ГБ

В этой теме нет новых непрочитанных сообщений. Фруза (1981) SATRip от AND03AND

184 | 106

1.08 ГБ

В этой теме нет новых непрочитанных сообщений. Раскиданное гнездо (1981) SATRip от AND03AND

0 | 17

1.35 ГБ

В этой теме нет новых непрочитанных сообщений. Раскиданное гнездо (1981) SATRip от AND03AND

16 | 5

1.07 ГБ

В этой теме нет новых непрочитанных сообщений. Я остаюсь / Je reste! (2003) DVDRip-AVC

12 | 2

1.47 ГБ

В этой теме нет новых непрочитанных сообщений. Я остаюсь (2007) DVDRip - Generalfilm

575 | 27

1.46 ГБ

В этой теме нет новых непрочитанных сообщений. Bahh Tee - Остаюсь собой (2010) MP3

3 | 3

56.69 МБ




Вы не можете начинать темы
Вы не можете отвечать на сообщения
Вы не можете редактировать свои сообщения
Вы не можете удалять свои сообщения
Вы не можете добавлять вложения

Перейти:  
Для Мосгорсуда, Роскомнадзора и рекламодателей: mosgorsud-torrent[собачка]yandex.ru
 Вход
ppkBB3cker v.2 © 2008-2014 @ PPK
[ Time : 1.878s | 15 Queries | GZIP : On ]

Торрент трекер RUTOR.IN, Не можете зайти на rutor.org? Какой новый адрес рутор? Какое зеркало рутор? Не работает rutor.org и зеркала? Тогда наш торрент специально для вас. Rutor.in неофициальное зеркало rutor. В случае если у Вас заблокирован rutor или вдруг Вы не можете на него зайти, то Вы без труда сможете скачать бесплатно и без рекламы последние новинки кино, игр, сериалов и прочего у нас, на Rutor.in. Не нужно использовать прокси, чтобы зайти на рутор, достаточно воспользоваться нашим ресурсом. Все новые фильмы, игры, сериалы, книги и музыка за 2013 и 2014 годы через торрент бесплатно. Скачивайте фильмы в хорошем качестве, игры для пк, xbox, playstation без регистрации. У нас вы найдете новые Зарубежные сериалы и Русские сериалы 2013, 2014, 2015 годов. Оставайтесь с нами, качайте любимые фильмы, игры, сериалы, книги и музыку.
cron