img image001 image001 image001 image001 image001 image001 image001 image001 image001 image001 image001 image001 image001 image001 image001

Planets Sun Sun Sun
Статистика раздачи
Автор: PriZraK | Размер: 2.87 ГБ | Добавлен: 04 ноя 2015
Раздают: 468    Качают: 38
Скачать торрент
Скачать торрент
Описание торрента

СообщениеДобавлено: 04 ноя 2015 



Информация о фильме
Название: Сибирский цирюльник
Год выхода: 1998
Жанр: драма, мелодрама, исторический
Режиссер: Никита Михалков
В ролях: Олег Меньшиков, Джулия Ормонд, Ричард Харрис, Алексей Петренко, Марина Неёлова, Владимир Ильин, Даниэль Ольбрыхский, Анна Михалкова, Марат Башаров, Никита Татаренков, Артем Михалков, Георгий Дронов, Авангард Леонтьев, Роберт Харди, Элизабет Сприггс, Никита Михалков, Изабель Рено, Евгений Стеблов, Владимир Зайцев, Виктор Вержбицкий, Леонид Куравлёв, Александр Леньков, Александр Ильин, Евгений Дворжецкий

О фильме: Годы правления Александра III. «Сибирский цирюльник» — паровая самоходная лесопилка, заказ на производство которой пытается получить в российских государственных органах американский авантюрист Маккрэкен. Для своей поддержки он вызывает в Москву Джейн, чья задача — обворожить генерала Радлова и уговорить его дать согласие на разработку машины.
По пути Джейн знакомится с юнкером Андреем Толстым. Он влюбляется в иностранку и в порыве ревности избивает соперника-генерала. Бывшего юнкера, закованного в кандалы, отправляют в Сибирь, разлучив с возлюбленной…
Страна: Россия, Франция, Италия, Чехия
Продолжительность: 02:49:49
Перевод: не требуется

Файл
Кодек: x264
Качество: DVDRip-AVC
Видео: MPEG-4 AVC, 1970 Кбит/с, 718x432@1021x432
Звук: AC3, 6 ch, 448 Кбит/с
Cубтитры: Русские (на англ. речь)

Общее
Уникальный идентификатор : 219955642582305260732779886187269204248 (0xA579EA750E1E15629BD3A50A72DA2918)
Полное имя : D:Сибирский цирюльник_1998-DVDRip-AVC.mkv
Формат : Matroska
Версия формата : Version 2
Размер файла : 2,87 Гбайт
Продолжительность : 2 ч. 49 м.
Общий поток : 2420 Кбит/сек
Дата кодирования : UTC 2015-11-02 10:07:44
Программа кодирования : mkvmerge v5.8.0 ('No Sleep / Pillow') built on Sep 2 2012 15:37:04
Библиотека кодирования : libebml v1.2.3 + libmatroska v1.3.0
Attachements : Cover.jpeg

Видео
Идентификатор : 1
Формат : AVC
Формат/Информация : Advanced Video Codec
Профиль формата : High@L4.1
Параметр CABAC формата : Да
Параметр ReFrames формата : 14 кадров
Идентификатор кодека : V_MPEG4/ISO/AVC
Продолжительность : 2 ч. 49 м.
Битрейт : 1970 Кбит/сек
Ширина : 718 пикселей
Высота : 432 пикселя
Соотношение сторон : 2,35:1
Соотношение сторон в оригинале : 2,35:1
Режим частоты кадров : Постоянный
Частота кадров : 25,000 кадров/сек
Цветовое пространство : YUV
Субдискретизация насыщенности : 4:2:0
Битовая глубина : 8 бит
Тип развёртки : Прогрессивная
Бит/(Пиксели*Кадры) : 0.254
Размер потока : 2,28 Гбайт (79%)
Библиотека кодирования : x264 core 146 r2538 121396c
Настройки программы : cabac=1 / ref=14 / deblock=1:-2:-1 / analyse=0x3:0x133 / me=umh / subme=10 / psy=1 / psy_rd=1.05:0.15 / mixed_ref=1 / me_range=32 / chroma_me=1 / trellis=2 / 8x8dct=1 / cqm=0 / deadzone=21,11 / fast_pskip=0 / chroma_qp_offset=-3 / threads=12 / lookahead_threads=3 / sliced_threads=0 / nr=0 / decimate=0 / interlaced=0 / bluray_compat=0 / constrained_intra=0 / bframes=11 / b_pyramid=2 / b_adapt=2 / b_bias=0 / direct=3 / weightb=1 / open_gop=0 / weightp=2 / keyint=250 / keyint_min=25 / scenecut=40 / intra_refresh=0 / rc=2pass / mbtree=0 / bitrate=1970 / ratetol=1.0 / qcomp=0.63 / qpmin=0 / qpmax=39 / qpstep=4 / cplxblur=20.0 / qblur=0.5 / ip_ratio=1.40 / pb_ratio=1.30 / aq=1:1.00
Язык : English
Default : Да
Forced : Нет
Цветовой диапазон : Limited
Основные цвета : BT.601 PAL
Характеристики трансфера : BT.470 System B, BT.470 System G
Коэффициенты матрицы : BT.601

Аудио
Идентификатор : 2
Формат : AC-3
Формат/Информация : Audio Coding 3
Расширение режима : CM (complete main)
Параметр Endianness формата : Big
Идентификатор кодека : A_AC3
Продолжительность : 2 ч. 49 м.
Вид битрейта : Постоянный
Битрейт : 448 Кбит/сек
Каналы : 6 каналов
Расположение каналов : Front: L C R, Side: L R, LFE
Частота : 48,0 КГц
Метод сжатия : С потерями
Размер потока : 544 Мбайт (19%)
Язык : Russian
Default : Да
Forced : Нет

Текст
Идентификатор : 3
Формат : UTF-8
Идентификатор кодека : S_TEXT/UTF8
Идентификатор кодека/Информация : UTF-8 Plain Text
Заголовок : На английскую речь
Язык : Russian
Default : Да
Forced : Нет


Спасибо за исходник Pathe - harbin, за работу с исходником - Нордер.
Релиз от:
Автор релиза:



   Похожие торренты   Торрент   Размер 
В этой теме нет новых непрочитанных сообщений. Сибирский цирюльник (1998) DVDRip

293 | 12

1.46 ГБ

В этой теме нет новых непрочитанных сообщений. Сибирский цирюльник (1998) DVDRip от Scarabey

869 | 59

1.45 ГБ

В этой теме нет новых непрочитанных сообщений. Сибирский цирюльник (1998) DVDRip от MediaClub | КПК

231 | 16

779.39 МБ

В этой теме нет новых непрочитанных сообщений. Сибирский цирюльник / Le barbier de Sibérie (1998) DVDRip

219 | 21

3.35 ГБ

В этой теме нет новых непрочитанных сообщений. OST Сибирский Цирюльник / The Barber of Siberia (1998) MP3

0 | 12

60.85 МБ

В этой теме нет новых непрочитанных сообщений. Сибирский цирюльник (1999) DVDRip от PlanetaUA

500 | 14

2.05 ГБ

В этой теме нет новых непрочитанных сообщений. Сибирский спас (1998) DVDRip

48 | 8

1.46 ГБ




Вы не можете начинать темы
Вы не можете отвечать на сообщения
Вы не можете редактировать свои сообщения
Вы не можете удалять свои сообщения
Вы не можете добавлять вложения

Перейти:  
Для Мосгорсуда, Роскомнадзора и рекламодателей: mosgorsud-torrent[собачка]yandex.ru
 Вход
ppkBB3cker v.2 © 2008-2014 @ PPK
[ Time : 3.441s | 14 Queries | GZIP : On ]

Торрент трекер RUTOR.IN, Не можете зайти на rutor.org? Какой новый адрес рутор? Какое зеркало рутор? Не работает rutor.org и зеркала? Тогда наш торрент специально для вас. Rutor.in неофициальное зеркало rutor. В случае если у Вас заблокирован rutor или вдруг Вы не можете на него зайти, то Вы без труда сможете скачать бесплатно и без рекламы последние новинки кино, игр, сериалов и прочего у нас, на Rutor.in. Не нужно использовать прокси, чтобы зайти на рутор, достаточно воспользоваться нашим ресурсом. Все новые фильмы, игры, сериалы, книги и музыка за 2013 и 2014 годы через торрент бесплатно. Скачивайте фильмы в хорошем качестве, игры для пк, xbox, playstation без регистрации. У нас вы найдете новые Зарубежные сериалы и Русские сериалы 2013, 2014, 2015 годов. Оставайтесь с нами, качайте любимые фильмы, игры, сериалы, книги и музыку.