img image001 image001 image001 image001 image001 image001 image001 image001 image001 image001 image001 image001 image001 image001 image001

Planets Sun Sun Sun
Статистика раздачи
Автор: PriZraK | Размер: 745.95 МБ | Добавлен: 04 ноя 2015
Раздают: 290    Качают: 24
Скачать торрент
Скачать торрент
Описание торрента

СообщениеДобавлено: 04 ноя 2015 



Информация о фильме
Название: Простая девчонка
Год выхода премьеры: 2015
Год производства: 2013

Жанр: Мелодрама
Режиссер: Максим Бриус
В ролях: Анастасия Стежко, Станислав Эрдлей, Борис Хвошнянский, Александр Абрамович, Светлана Никифорова, Галина Чернобаева, Инна Коляда, Виктор Васильев (II), Ольга Сизова, Светлана Клименко, Константин Задворный

О фильме:
Алена Шелестова живет и работает в большом городе. Несмотря на то, что Алена еще очень молода, она занята серьезным делом – пишет кандидатскую по истории стекольного производства, а заодно организует выставку старинных изделий из стекла.
Рейтинг:
Страна: Россия
Студия: ООО "Тесей Продакшн", МЕГА Продакшн
Продолжительность: 01:42:17
Перевод: Не требуется

Файл
Кодек: XviD
Качество: HDTVRip
Видео: 592x336 (1.76:1), 25 fps, XviD build 73 ~881 kbps avg, 0.18 bit/pixel
Звук: 48 kHz, MPEG Layer 3, 2 ch, ~128.00 kbps avg
Субтитры: Отсутствует

Семпл

General
Complete name : D:Изготовление риповProstaja.devchonka.2015.HDTVRip.by shkiper.avi
Format : AVI
Format/Info : Audio Video Interleave
File size : 746 MiB
Duration : 1h 42mn
Overall bit rate : 1 020 Kbps
Writing application : VirtualDubMod 1.5.10.3 | www.virtualdub-fr.org || (build 2550/release)
Writing library : VirtualDubMod build 2550/release

Video
ID : 0
Format : MPEG-4 Visual
Format profile : Advanced Simple@L5
Format settings, BVOP : 1
Format settings, QPel : No
Format settings, GMC : No warppoints
Format settings, Matrix : Custom
Codec ID : XVID
Codec ID/Hint : XviD
Duration : 1h 42mn
Bit rate : 882 Kbps
Width : 592 pixels
Height : 336 pixels
Display aspect ratio : 16:9
Frame rate : 25.000 fps
Color space : YUV
Chroma subsampling : 4:2:0
Bit depth : 8 bits
Scan type : Progressive
Compression mode : Lossy
Bits/(Pixel*Frame) : 0.177
Stream size : 645 MiB (86%)
Writing library : XviD 73

Audio
ID : 1
Format : MPEG Audio
Format version : Version 1
Format profile : Layer 3
Mode : Joint stereo
Mode extension : MS Stereo
Codec ID : 55
Codec ID/Hint : MP3
Duration : 1h 42mn
Bit rate mode : Constant
Bit rate : 128 Kbps
Channel(s) : 2 channels
Sampling rate : 48.0 KHz
Compression mode : Lossy
Stream size : 93.7 MiB (13%)
Alignment : Aligned on interleaves
Interleave, duration : 40 ms (1.00 video frame)
Interleave, preload duration : 504 ms
Writing library : LAME3.99r
Encoding settings : -m j -V 4 -q 2 -lowpass 17 -b 128


Релиз от:



   Похожие торренты   Торрент   Размер 
В этой теме нет новых непрочитанных сообщений. Простая девчонка (2015) HDTVRip от MediaClub | КПК

124 | 22

464.4 МБ

В этой теме нет новых непрочитанных сообщений. Простая девчонка (2015) HDTVRip от Files-x

1529 | 143

1.37 ГБ

В этой теме нет новых непрочитанных сообщений. Простая девчонка (2015) HDTVRip-AVC от Files-x

474 | 36

1.37 ГБ

В этой теме нет новых непрочитанных сообщений. Простая девчонка (2015) HDTVRip 720p от MediaClub

309 | 27

2.43 ГБ

В этой теме нет новых непрочитанных сообщений. Простая девчонка (2015) HDTV 1080i

67 | 23

6.08 ГБ

В этой теме нет новых непрочитанных сообщений. Простая девчонка (2015) SATRip от Рипер АМ

340 | 26

1.46 ГБ

В этой теме нет новых непрочитанных сообщений. Во имя любви (2015) HDTVRip от Шкипер

992 | 41

745.49 МБ




Вы не можете начинать темы
Вы не можете отвечать на сообщения
Вы не можете редактировать свои сообщения
Вы не можете удалять свои сообщения
Вы не можете добавлять вложения

Перейти:  
Для Мосгорсуда, Роскомнадзора и рекламодателей: mosgorsud-torrent[собачка]yandex.ru
 Вход
ppkBB3cker v.2 © 2008-2014 @ PPK
[ Time : 0.039s | 16 Queries | GZIP : Off ]

cron