img image001 image001 image001 image001 image001 image001 image001 image001 image001 image001 image001 image001 image001 image001 image001

Planets Sun Sun Sun
Статистика раздачи
Автор: PriZraK | Размер: 1.05 ГБ | Добавлен: 04 ноя 2015
Раздают: 59    Качают: 9
Скачать торрент
Скачать торрент
Описание торрента

СообщениеДобавлено: 04 ноя 2015 

Страна: СССР
Производство: Мосфильм

Жанр: драма, мелодрама, военный
Год выпуска: 1974
Продолжительность: 01:28:44

Перевод: Не требуется
Cубтитры: нет
Оригинальная аудиодорожка: русский

Режиссер: Евгений Карелов

В ролях:
Евгений Матвеев, Дмитрий Франько, Нина Попова, Анатолий Соловьёв, Валентина Малявина, Армен Джигарханян, Юрий Кузьменков, Хорст Пройскер, Хельмут Шрайбер, Евгений Буренков, Юрий Гусев, Владимир Кашпур, Афанасий Кочетков, Николай Лебедев (II), Татьяна Назарова, Юрий Леонидов (II), Валерий Носик, Семён Морозов, Виктор Павлов, Алексей Преснецов, Лидия Русланова, Николай Сергеев, Евгений Стеблов, Борис Токарев, Алексей Эйбоженко, Владимир Уан-Зо-Ли, П. Бундаш, Д. Лизак, О. Шобер, Санжмятав Умбаа...
Полный список актёров

Описание:
Широкоформатный фильм состоит из двух частей: "Я, Шаповалов Т.П." (1973) и "Ради жизни на земле" (1974).
История жизни советского военачальника со времен революции и до последних лет Великой Отечественной войны.





Источник: VHS
Качество видео: VHSRip
Формат видео: AVI

Видео: 688x384 (16:9), 25 fps, XviD ~ 1557 kbps avg, 0.236 bit/pixel
Аудио: 48 kHz, Dolby Digital AC3 2.0, 128 kbps

Раздача от:
Общее
Полное имя : Vysokoe.zvanie.Radi.zhizni.na.zemle.1973.VHSRip_[New-team]_by_AVP_Studio.avi
Формат : AVI
Формат/Информация : Audio Video Interleave
Размер файла : 1,05 Гбайт
Продолжительность : 1 ч. 28 м.
Общий поток : 1695 Кбит/сек
Программа кодирования : VirtualDubMod 1.5.10.3 | www.virtualdub-fr.org || (build 2550/release)
Библиотека кодирования : VirtualDubMod build 2550/release

Видео
Идентификатор : 0
Формат : MPEG-4 Visual
Профиль формата : Advanced Simple@L5
Параметр BVOP формата : 1
Параметр QPel формата : Нет
Параметр GMC формата : Без точки перехода
Параметр матрицы формата : Выборочная
Идентификатор кодека : XVID
Идентификатор кодека/Подсказка : XviD
Продолжительность : 1 ч. 28 м.
Битрейт : 1557 Кбит/сек
Ширина : 688 пикселей
Высота : 384 пикселя
Соотношение сторон : 16:9
Частота кадров : 25,000 кадров/сек
Цветовое пространство : YUV
Субдискретизация насыщенности : 4:2:0
Битовая глубина : 8 бит
Тип развёртки : Прогрессивная
Метод сжатия : С потерями
Бит/(Пиксели*Кадры) : 0.236
Размер потока : 988 Мбайт (92%)
Библиотека кодирования : XviD 73

Аудио
Идентификатор : 1
Формат : AC-3
Формат/Информация : Audio Coding 3
Расширение режима : CM (complete main)
Параметр Endianness формата : Big
Идентификатор кодека : 2000
Продолжительность : 1 ч. 28 м.
Вид битрейта : Постоянный
Битрейт : 128 Кбит/сек
Каналы : 2 канала
Расположение каналов : Front: L R
Частота : 48,0 КГц
Метод сжатия : С потерями
Размер потока : 81,2 Мбайт (8%)
Выравнивание : Разделение по промежуткам
Продолжительность промежутка : 40 мс. (1,00 видеокадр)
Время предзагрузки промежутка : 500 мс





   Похожие торренты   Торрент   Размер 
В этой теме нет новых непрочитанных сообщений. Высокое звание: Ради жизни на земле (1974) VHSRip-AVC от New-Team

12 | 6

744.91 МБ

В этой теме нет новых непрочитанных сообщений. Высокое звание - 2: Ради жизни на земле (1973) VHSRip

72 | 13

1.39 ГБ

В этой теме нет новых непрочитанных сообщений. Высокое звание: Я - Шаповалов Т.П. (1973) SATRip

112 | 13

1.38 ГБ

В этой теме нет новых непрочитанных сообщений. Подвиг ради жизни [01-04 из 04] (2013) SATRip от GeneralFilm

63 | 194

1.78 ГБ

В этой теме нет новых непрочитанных сообщений. Все ради Пита / For Pete's Sake (1974) DVDRip-AVC от Temperest

4 | 2

1.64 ГБ

В этой теме нет новых непрочитанных сообщений. Тайна жизни на Земле / IMAX. The Secret Of Life On Earth (1993) HDTVRip-AVC от -=HD-NET=-

5 | 2

608.96 МБ

В этой теме нет новых непрочитанных сообщений. Долгота дня (1974) VHSRip

22 | 5

1.04 ГБ




Вы не можете начинать темы
Вы не можете отвечать на сообщения
Вы не можете редактировать свои сообщения
Вы не можете удалять свои сообщения
Вы не можете добавлять вложения

Перейти:  
Для Мосгорсуда, Роскомнадзора и рекламодателей: mosgorsud-torrent[собачка]yandex.ru
 Вход
ppkBB3cker v.2 © 2008-2014 @ PPK
[ Time : 0.117s | 15 Queries | GZIP : Off ]

Торрент трекер RUTOR.IN, Не можете зайти на rutor.org? Какой новый адрес рутор? Какое зеркало рутор? Не работает rutor.org и зеркала? Тогда наш торрент специально для вас. Rutor.in неофициальное зеркало rutor. В случае если у Вас заблокирован rutor или вдруг Вы не можете на него зайти, то Вы без труда сможете скачать бесплатно и без рекламы последние новинки кино, игр, сериалов и прочего у нас, на Rutor.in. Не нужно использовать прокси, чтобы зайти на рутор, достаточно воспользоваться нашим ресурсом. Все новые фильмы, игры, сериалы, книги и музыка за 2013 и 2014 годы через торрент бесплатно. Скачивайте фильмы в хорошем качестве, игры для пк, xbox, playstation без регистрации. У нас вы найдете новые Зарубежные сериалы и Русские сериалы 2013, 2014, 2015 годов. Оставайтесь с нами, качайте любимые фильмы, игры, сериалы, книги и музыку.