img image001 image001 image001 image001 image001 image001 image001 image001 image001 image001 image001 image001 image001 image001 image001

Planets Sun Sun Sun
Статистика раздачи
Автор: PriZraK | Размер: 744.91 МБ | Добавлен: 04 ноя 2015
Раздают: 16    Качают: 2
Скачать торрент
Скачать торрент
Описание торрента

СообщениеДобавлено: 04 ноя 2015 

Страна: СССР
Производство: Мосфильм

Жанр: драма, мелодрама, военный
Год выпуска: 1974
Продолжительность: 01:28:44

Перевод: Не требуется
Cубтитры: нет
Оригинальная аудиодорожка: русский

Режиссер: Евгений Карелов

В ролях:
Евгений Матвеев, Дмитрий Франько, Нина Попова, Анатолий Соловьёв, Валентина Малявина, Армен Джигарханян, Юрий Кузьменков, Хорст Пройскер, Хельмут Шрайбер, Евгений Буренков, Юрий Гусев, Владимир Кашпур, Афанасий Кочетков, Николай Лебедев (II), Татьяна Назарова, Юрий Леонидов (II), Валерий Носик, Семён Морозов, Виктор Павлов, Алексей Преснецов, Лидия Русланова, Николай Сергеев, Евгений Стеблов, Борис Токарев, Алексей Эйбоженко, Владимир Уан-Зо-Ли, П. Бундаш, Д. Лизак, О. Шобер, Санжмятав Умбаа...
Полный список актёров

Описание:
Широкоформатный фильм состоит из двух частей: "Я, Шаповалов Т.П." (1973) и "Ради жизни на земле" (1974).
История жизни советского военачальника со времен революции и до последних лет Великой Отечественной войны.





Источник: VHS
Качество видео: VHSRip-AVC
Формат видео: MKV

Видео: 688->718x404 (16:9), 25 fps, H264 ~ 1044 kbps avg, 0.150 bit/pixel
Аудио: 48 kHz, Dolby Digital AC3 2.0, 128 kbps

Раздача от:
щее
Полное имя : Vysokoe.zvanie.Radi.zhizni.na.zemle.1973.VHSRip-AVC_[New-team]_by_AVP_Studio.mkv
Формат : Matroska
Версия формата : Version 2
Размер файла : 745 Мбайт
Продолжительность : 1 ч. 28 м.
Общий поток : 1174 Кбит/сек
Дата кодирования : UTC 2015-10-23 21:41:19
Программа кодирования : mkvmerge v6.1.0 ('Old Devil') built on Mar 4 2013 09:10:42
Библиотека кодирования : libebml v1.3.0 + libmatroska v1.4.0

Видео
Идентификатор : 1
Формат : AVC
Формат/Информация : Advanced Video Codec
Профиль формата : High@L4.1
Параметр CABAC формата : Да
Параметр ReFrames формата : 10 кадров
Идентификатор кодека : V_MPEG4/ISO/AVC
Продолжительность : 1 ч. 28 м.
Битрейт : 1044 Кбит/сек
Ширина : 688 пикселей
Высота : 404 пикселя
Соотношение сторон : 16:9
Режим частоты кадров : Постоянный
Частота кадров : 25,000 кадров/сек
Цветовое пространство : YUV
Субдискретизация насыщенности : 4:2:0
Битовая глубина : 8 бит
Тип развёртки : Прогрессивная
Бит/(Пиксели*Кадры) : 0.150
Размер потока : 649 Мбайт (87%)
Библиотека кодирования : x264 core 148 r2597 e86f3a1
Настройки программы : cabac=1 / ref=10 / deblock=1:-2:-1 / analyse=0x3:0x113 / me=umh / subme=10 / psy=1 / psy_rd=1.00:0.00 / mixed_ref=1 / me_range=32 / chroma_me=1 / trellis=2 / 8x8dct=1 / cqm=0 / deadzone=21,11 / fast_pskip=1 / chroma_qp_offset=-2 / threads=6 / lookahead_threads=1 / sliced_threads=0 / nr=0 / decimate=0 / interlaced=0 / bluray_compat=0 / constrained_intra=0 / bframes=8 / b_pyramid=2 / b_adapt=2 / b_bias=0 / direct=3 / weightb=1 / open_gop=0 / weightp=2 / keyint=250 / keyint_min=25 / scenecut=40 / intra_refresh=0 / rc=2pass / mbtree=0 / bitrate=1044 / ratetol=1.0 / qcomp=0.60 / qpmin=0 / qpmax=69 / qpstep=4 / cplxblur=20.0 / qblur=0.5 / ip_ratio=1.40 / pb_ratio=1.30 / aq=1:1.00
Default : Да
Forced : Нет

Аудио
Идентификатор : 2
Формат : AC-3
Формат/Информация : Audio Coding 3
Расширение режима : CM (complete main)
Параметр Endianness формата : Big
Идентификатор кодека : A_AC3
Продолжительность : 1 ч. 28 м.
Вид битрейта : Постоянный
Битрейт : 128 Кбит/сек
Каналы : 2 канала
Расположение каналов : Front: L R
Частота : 48,0 КГц
Метод сжатия : С потерями
Размер потока : 81,2 Мбайт (11%)
Default : Да
Forced : Нет





   Похожие торренты   Торрент   Размер 
В этой теме нет новых непрочитанных сообщений. Высокое звание: Ради жизни на земле (1974) VHSRip от New-Team

61 | 16

1.05 ГБ

В этой теме нет новых непрочитанных сообщений. Высокое звание - 2: Ради жизни на земле (1973) VHSRip

72 | 13

1.39 ГБ

В этой теме нет новых непрочитанных сообщений. Высокое звание: Я - Шаповалов Т.П. (1973) SATRip

112 | 13

1.38 ГБ

В этой теме нет новых непрочитанных сообщений. Подвиг ради жизни [01-04 из 04] (2013) SATRip от GeneralFilm

63 | 194

1.78 ГБ

В этой теме нет новых непрочитанных сообщений. Все ради Пита / For Pete's Sake (1974) DVDRip-AVC от Temperest

4 | 2

1.64 ГБ

В этой теме нет новых непрочитанных сообщений. Тайна жизни на Земле / IMAX. The Secret Of Life On Earth (1993) HDTVRip-AVC от -=HD-NET=-

5 | 2

608.96 МБ

В этой теме нет новых непрочитанных сообщений. Долгота дня (1974) VHSRip

22 | 5

1.04 ГБ




Вы не можете начинать темы
Вы не можете отвечать на сообщения
Вы не можете редактировать свои сообщения
Вы не можете удалять свои сообщения
Вы не можете добавлять вложения

Перейти:  
Для Мосгорсуда, Роскомнадзора и рекламодателей: mosgorsud-torrent[собачка]yandex.ru
 Вход
ppkBB3cker v.2 © 2008-2014 @ PPK
[ Time : 0.041s | 16 Queries | GZIP : Off ]

Торрент трекер RUTOR.IN, Не можете зайти на rutor.org? Какой новый адрес рутор? Какое зеркало рутор? Не работает rutor.org и зеркала? Тогда наш торрент специально для вас. Rutor.in неофициальное зеркало rutor. В случае если у Вас заблокирован rutor или вдруг Вы не можете на него зайти, то Вы без труда сможете скачать бесплатно и без рекламы последние новинки кино, игр, сериалов и прочего у нас, на Rutor.in. Не нужно использовать прокси, чтобы зайти на рутор, достаточно воспользоваться нашим ресурсом. Все новые фильмы, игры, сериалы, книги и музыка за 2013 и 2014 годы через торрент бесплатно. Скачивайте фильмы в хорошем качестве, игры для пк, xbox, playstation без регистрации. У нас вы найдете новые Зарубежные сериалы и Русские сериалы 2013, 2014, 2015 годов. Оставайтесь с нами, качайте любимые фильмы, игры, сериалы, книги и музыку.