img image001 image001 image001 image001 image001 image001 image001 image001 image001 image001 image001 image001 image001 image001 image001

Planets Sun Sun Sun
Статистика раздачи
Автор: PriZraK | Размер: 1.54 ГБ | Добавлен: 04 ноя 2015
Раздают: 105    Качают: 28
Скачать торрент
Скачать торрент
Описание торрента

СообщениеДобавлено: 04 ноя 2015 



Информация о фильме
Название: Тема
Год выхода: 1979
Жанр: Драма
Режиссер: Глеб Панфилов
В ролях: Михаил Ульянов, Инна Чурикова, Станислав Любшин, Евгений Весник, Евгения Нечаева, Наталья Селезнёва, Сергей Никоненко

О фильме: Драматург Ким Есенин, переживающий творческий кризис, приезжает в старинный русский город Суздаль. В краеведческом музее встречает филолога Александру. Долгие беседы и неподдельная искренность собеседницы рождают в нем большие чувства. Случайно Есенин становится свидетелем чужой любви - отъезжающего в Израиль диссидента и Саши. Он потрясен этим сложным конфликтом и невыдуманными проблемами, где нет места ни меланхолиям, ни депрессиям. В сложившейся ситуации герой решает ехать в Москву...
Страна: СССР
Продолжительность: 01:33:23
Перевод: не требуется

Файл
Кодек: x264
Качество: DVDRip-AVC
Видео: MPEG-4 AVC, 2100 Кбит/с, 716x556@763x556
Звук: AC3, 2 ch, 256 Кбит/с

Общее
Уникальный идентификатор : 244140748514378627868563992534084431377 (0xB7ABCC3DFD7E650A8E28675115032E11)
Полное имя : R:МОИ РИПЫТема_1979-DVDRip-AVC.mkv
Формат : Matroska
Версия формата : Version 2
Размер файла : 1,54 Гбайт
Продолжительность : 1 ч. 33 м.
Общий поток : 2361 Кбит/сек
Дата кодирования : UTC 2015-04-07 01:33:43
Программа кодирования : mkvmerge v5.8.0 ('No Sleep / Pillow') built on Sep 2 2012 15:37:04
Библиотека кодирования : libebml v1.2.3 + libmatroska v1.3.0

Видео
Идентификатор : 1
Формат : AVC
Формат/Информация : Advanced Video Codec
Профиль формата : High@L4.1
Параметр CABAC формата : Да
Параметр ReFrames формата : 15 кадров
Идентификатор кодека : V_MPEG4/ISO/AVC
Продолжительность : 1 ч. 33 м.
Битрейт : 2100 Кбит/сек
Ширина : 716 пикселей
Высота : 556 пикселей
Соотношение сторон : 1,372
Соотношение сторон в оригинале : 1,374
Режим частоты кадров : Постоянный
Частота кадров : 25,000 кадров/сек
Цветовое пространство : YUV
Субдискретизация насыщенности : 4:2:0
Битовая глубина : 8 бит
Тип развёртки : Прогрессивная
Бит/(Пиксели*Кадры) : 0.211
Размер потока : 1,34 Гбайт (87%)
Библиотека кодирования : x264 core 130 r2273 b3065e6
Настройки программы : cabac=1 / ref=15 / deblock=1:-2:-2 / analyse=0x3:0x133 / me=umh / subme=10 / psy=1 / psy_rd=1.05:0.17 / mixed_ref=1 / me_range=32 / chroma_me=1 / trellis=2 / 8x8dct=1 / cqm=0 / deadzone=21,11 / fast_pskip=0 / chroma_qp_offset=-3 / threads=12 / lookahead_threads=3 / sliced_threads=0 / nr=0 / decimate=0 / interlaced=0 / bluray_compat=0 / constrained_intra=0 / bframes=10 / b_pyramid=2 / b_adapt=2 / b_bias=0 / direct=3 / weightb=1 / open_gop=0 / weightp=2 / keyint=250 / keyint_min=25 / scenecut=40 / intra_refresh=0 / rc=2pass / mbtree=0 / bitrate=2100 / ratetol=1.0 / qcomp=0.67 / qpmin=0 / qpmax=39 / qpstep=4 / cplxblur=20.0 / qblur=0.5 / ip_ratio=1.40 / pb_ratio=1.30 / aq=1:1.00
Язык : English
Default : Да
Forced : Нет
Цветовой диапазон : Limited
Основные цвета : BT.601 PAL
Характеристики трансфера : BT.470 System B, BT.470 System G
Коэффициенты матрицы : BT.601

Аудио
Идентификатор : 2
Формат : AC-3
Формат/Информация : Audio Coding 3
Расширение режима : CM (complete main)
Параметр Endianness формата : Big
Идентификатор кодека : A_AC3
Продолжительность : 1 ч. 33 м.
Вид битрейта : Постоянный
Битрейт : 256 Кбит/сек
Каналы : 2 канала
Расположение каналов : Front: L R
Частота : 48,0 КГц
Метод сжатия : С потерями
Размер потока : 171 Мбайт (11%)
Язык : Russian
Default : Да
Forced : Нет


Релиз от:
Автор релиза:



   Похожие торренты   Торрент   Размер 
В этой теме нет новых непрочитанных сообщений. Тема (1979) DVDRip

50 | 8

1.46 ГБ

В этой теме нет новых непрочитанных сообщений. Тема для Windows - Modern: тема оформления рабочего стола Windows для Rainmeter, v3.0 (2016) PC

76 | 1

2.82 МБ

В этой теме нет новых непрочитанных сообщений. Сыщик (1979) DVDRip-AVC от ExKinoRay

122 | 10

2 ГБ

В этой теме нет новых непрочитанных сообщений. Гараж (1979) DVDRip-AVC от ExKinoRay

531 | 18

2.17 ГБ

В этой теме нет новых непрочитанных сообщений. С любимыми не расставайтесь (1979) DVDRip-AVC от ExKinoRay

47 | 2

1.47 ГБ

В этой теме нет новых непрочитанных сообщений. Завтрак на траве (1979) DVDRip-AVC от ExKinoRay

256 | 21

3.25 ГБ

В этой теме нет новых непрочитанных сообщений. Отпуск в сентябре (1979) DVDRip-AVC от ExKinoRay

152 | 10

2.59 ГБ




Вы не можете начинать темы
Вы не можете отвечать на сообщения
Вы не можете редактировать свои сообщения
Вы не можете удалять свои сообщения
Вы не можете добавлять вложения

Перейти:  
Для Мосгорсуда, Роскомнадзора и рекламодателей: mosgorsud-torrent[собачка]yandex.ru
 Вход
ppkBB3cker v.2 © 2008-2014 @ PPK
[ Time : 1.163s | 14 Queries | GZIP : Off ]

Торрент трекер RUTOR.IN, Не можете зайти на rutor.org? Какой новый адрес рутор? Какое зеркало рутор? Не работает rutor.org и зеркала? Тогда наш торрент специально для вас. Rutor.in неофициальное зеркало rutor. В случае если у Вас заблокирован rutor или вдруг Вы не можете на него зайти, то Вы без труда сможете скачать бесплатно и без рекламы последние новинки кино, игр, сериалов и прочего у нас, на Rutor.in. Не нужно использовать прокси, чтобы зайти на рутор, достаточно воспользоваться нашим ресурсом. Все новые фильмы, игры, сериалы, книги и музыка за 2013 и 2014 годы через торрент бесплатно. Скачивайте фильмы в хорошем качестве, игры для пк, xbox, playstation без регистрации. У нас вы найдете новые Зарубежные сериалы и Русские сериалы 2013, 2014, 2015 годов. Оставайтесь с нами, качайте любимые фильмы, игры, сериалы, книги и музыку.