img image001 image001 image001 image001 image001 image001 image001 image001 image001 image001 image001 image001 image001 image001 image001

Planets Sun Sun Sun
Статистика раздачи
Автор: PriZraK | Размер: 2.82 ГБ | Добавлен: 04 ноя 2015
Раздают: 266    Качают: 23
Скачать торрент
Скачать торрент
Описание торрента

СообщениеДобавлено: 04 ноя 2015 



Информация о фильме
Название: Красная палатка
Год выхода: 1969
Жанр: Драма, фильм-катастрофа, приключения
Режиссер: Михаил Калатозов
В ролях: Шон Коннери, Клаудия Кардинале, Харди Крюгер, Питер Финч, Массимо Джиротти, Луиджи Вануччи, Марио Адорф, Эдуард Марцевич, Григорий Гай, Никита Михалков, Николай Иванов, Борис Хмельницкий, Юрий Соломин, Юрий Визбор, Донатас Банионис, Отар Коберидзе, Феликс Эйнас, Борис Голдаев, Юрий Назаров, Леонид Каневский, Эрнст Романов, Рогволд Суховерко, Бруно Оя, Галина Микеладзе, Хайнц Йозеф Браун, Рейно Арен, Борис Клюев

О фильме: Полное драматизма киноповествование об интернациональной арктической экспедиции под руководством Умберто Нобиле, о постигшей ее катастрофе и спасении большинства участников советскими летчиками и моряками ледокола "Красин". Этот фильм о мужестве и риске, о силе и слабости духа, о цене жизни и смерти, о самом суровом суде - суде совести... Последний фильм великого советского режиссёра Михаила Калатозова.
Страна: СССР, Италия, Мосфильм
Продолжительность: 02:29:57
Перевод: не требуется

Файл
Кодек: x264
Качество: DVDRip-AVC
Видео: MPEG-4 AVC, 2112 Кбит/с, 718x566@766x566
Звук: АС3, 6 ch, 448 Кбит/с, АС3, 1 ch, 128 Кбит/с
Субтитры: Русские


raw [info]: 718x556p 16:15 @ 25/1 fps (cfr)
x264 [info]: using SAR=16/15
x264 [info]: using cpu capabilities: MMX2 SSE2Fast SSSE3 SSE4.2 AVX
x264 [info]: profile High, level 4.1
x264 [info]: frame I:581 Avg QP:15.64 size: 63497
x264 [info]: frame P:30047 Avg QP:19.96 size: 21341
x264 [info]: frame B:79402 Avg QP:21.25 size: 6094
==============================================================================================================
Общее
Уникальный идентификатор : 175196494095025022200698744865181581293 (0x83CD9E0EC609B19C80863F8AEEA6BFED)
Полное имя : R:МОИ РИПЫКрасная палатка_1969-DVDRip-AVCПалатка-1.mkv
Формат : Matroska
Версия формата : Version 2
Размер файла : 1,38 Гбайт
Продолжительность : 1 ч. 13 м.
Общий поток : 2690 Кбит/сек
Дата кодирования : UTC 2015-11-03 17:19:44
Программа кодирования : mkvmerge v5.8.0 ('No Sleep / Pillow') built on Sep 2 2012 15:37:04
Библиотека кодирования : libebml v1.2.3 + libmatroska v1.3.0

Видео
Идентификатор : 1
Формат : AVC
Формат/Информация : Advanced Video Codec
Профиль формата : High@L4.1
Параметр CABAC формата : Да
Параметр ReFrames формата : 15 кадров
Идентификатор кодека : V_MPEG4/ISO/AVC
Продолжительность : 1 ч. 13 м.
Битрейт : 2112 Кбит/сек
Ширина : 718 пикселей
Высота : 556 пикселей
Соотношение сторон : 1,378
Соотношение сторон в оригинале : 1,377
Режим частоты кадров : Постоянный
Частота кадров : 25,000 кадров/сек
Цветовое пространство : YUV
Субдискретизация насыщенности : 4:2:0
Битовая глубина : 8 бит
Тип развёртки : Прогрессивная
Бит/(Пиксели*Кадры) : 0.212
Размер потока : 1,06 Гбайт (77%)
Библиотека кодирования : x264 core 146 r2538 121396c
Настройки программы : cabac=1 / ref=15 / deblock=1:-2:-2 / analyse=0x3:0x133 / me=umh / subme=10 / psy=1 / psy_rd=1.05:0.13 / mixed_ref=1 / me_range=32 / chroma_me=1 / trellis=2 / 8x8dct=1 / cqm=0 / deadzone=21,11 / fast_pskip=0 / chroma_qp_offset=-3 / threads=12 / lookahead_threads=3 / sliced_threads=0 / nr=0 / decimate=0 / interlaced=0 / bluray_compat=0 / constrained_intra=0 / bframes=10 / b_pyramid=2 / b_adapt=2 / b_bias=0 / direct=3 / weightb=1 / open_gop=0 / weightp=2 / keyint=250 / keyint_min=25 / scenecut=40 / intra_refresh=0 / rc=2pass / mbtree=0 / bitrate=2112 / ratetol=1.0 / qcomp=0.63 / qpmin=0 / qpmax=39 / qpstep=4 / cplxblur=20.0 / qblur=0.5 / ip_ratio=1.40 / pb_ratio=1.30 / aq=1:1.00
Язык : English
Default : Да
Forced : Нет
Цветовой диапазон : Limited
Основные цвета : BT.601 PAL
Характеристики трансфера : BT.470 System B, BT.470 System G
Коэффициенты матрицы : BT.601

Аудио #1
Идентификатор : 2
Формат : AC-3
Формат/Информация : Audio Coding 3
Расширение режима : CM (complete main)
Параметр Endianness формата : Big
Идентификатор кодека : A_AC3
Продолжительность : 1 ч. 13 м.
Вид битрейта : Постоянный
Битрейт : 448 Кбит/сек
Каналы : 6 каналов
Расположение каналов : Front: L C R, Side: L R, LFE
Частота : 48,0 КГц
Метод сжатия : С потерями
Размер потока : 235 Мбайт (17%)
Язык : Russian
Default : Да
Forced : Нет

Аудио #2
Идентификатор : 3
Формат : AC-3
Формат/Информация : Audio Coding 3
Расширение режима : CM (complete main)
Параметр Endianness формата : Big
Идентификатор кодека : A_AC3
Продолжительность : 1 ч. 13 м.
Вид битрейта : Постоянный
Битрейт : 128 Кбит/сек
Каналы : 1 канал
Расположение каналов : Front: C
Частота : 48,0 КГц
Метод сжатия : С потерями
Размер потока : 67,2 Мбайт (5%)
Язык : Russian
Default : Нет
Forced : Нет

Текст
Идентификатор : 4
Формат : UTF-8
Идентификатор кодека : S_TEXT/UTF8
Идентификатор кодека/Информация : UTF-8 Plain Text
Язык : Russian
Default : Нет
Forced

Релиз от:
Автор релиза:



   Похожие торренты   Торрент   Размер 
В этой теме нет новых непрочитанных сообщений. Красная палатка (1969) DVDRip

67 | 33

2.91 ГБ

В этой теме нет новых непрочитанных сообщений. Красная палатка (1969) DVDRip-AVC от старпёра

172 | 23

1.91 ГБ

В этой теме нет новых непрочитанных сообщений. Красная палатка (1969) DVD9

71 | 20

7.64 ГБ

В этой теме нет новых непрочитанных сообщений. Красная харчевня / L'Auberge rouge (1951) DVDRip от ExKinoRay

7 | 6

1.37 ГБ

В этой теме нет новых непрочитанных сообщений. Влюбленные (1969) DVDRip-AVC от ExKinoRay

78 | 18

1.68 ГБ

В этой теме нет новых непрочитанных сообщений. Неподсуден (1969) DVDRip-AVC от ExKinoRay

113 | 10

1.48 ГБ

В этой теме нет новых непрочитанных сообщений. Последняя реликвия (1969) DVDRip от ExKinoRay

111 | 14

1.36 ГБ




Вы не можете начинать темы
Вы не можете отвечать на сообщения
Вы не можете редактировать свои сообщения
Вы не можете удалять свои сообщения
Вы не можете добавлять вложения

Перейти:  
Для Мосгорсуда, Роскомнадзора и рекламодателей: mosgorsud-torrent[собачка]yandex.ru
 Вход
ppkBB3cker v.2 © 2008-2014 @ PPK
[ Time : 0.051s | 15 Queries | GZIP : Off ]

Торрент трекер RUTOR.IN, Не можете зайти на rutor.org? Какой новый адрес рутор? Какое зеркало рутор? Не работает rutor.org и зеркала? Тогда наш торрент специально для вас. Rutor.in неофициальное зеркало rutor. В случае если у Вас заблокирован rutor или вдруг Вы не можете на него зайти, то Вы без труда сможете скачать бесплатно и без рекламы последние новинки кино, игр, сериалов и прочего у нас, на Rutor.in. Не нужно использовать прокси, чтобы зайти на рутор, достаточно воспользоваться нашим ресурсом. Все новые фильмы, игры, сериалы, книги и музыка за 2013 и 2014 годы через торрент бесплатно. Скачивайте фильмы в хорошем качестве, игры для пк, xbox, playstation без регистрации. У нас вы найдете новые Зарубежные сериалы и Русские сериалы 2013, 2014, 2015 годов. Оставайтесь с нами, качайте любимые фильмы, игры, сериалы, книги и музыку.
cron