img image001 image001 image001 image001 image001 image001 image001 image001 image001 image001 image001 image001 image001 image001 image001

Planets Sun Sun Sun
Статистика раздачи
Автор: PriZraK | Размер: 2.29 ГБ | Добавлен: 05 ноя 2015
Раздают: 2120    Качают: 148
Скачать торрент
Скачать торрент
Описание торрента

СообщениеДобавлено: 05 ноя 2015 

Страна: Россия
Производство: Art Pictures Studio

Жанр: драма, спорт
Год выпуска: 2015
Продолжительность: 01:27:06

Перевод: Не требуется
Cубтитры: нет
Оригинальная аудиодорожка: русский

Режиссер: Алексей Андрианов

В ролях:
Владимир Яглыч, Сергей Бондарчук (мл.), Светлана Ходченкова, Фёдор Бондарчук, Александр Балуев, Александр Новин, Мария Андреева, Алексей Комашко...
Полный список актёров

Описание:
Роман Родин уходит из морской пехоты и возвращается в родной Калининград. Здесь у него отец и старший брат Вячеслав, но как будто никого: они не семья и давно не общаются. Отец, когда-то талантливый тренер по боксу, мечтавший сделать из сыновей чемпионов, завязал и теперь живет рыбалкой, терзаясь сожалениями. А Слава с женой выбиваются из сил, чтобы заработать на лечение дочки… Шанс все исправить появляется, когда объявляют о международном турнире по смешанным единоборствам с огромным призовым фондом. Оба брата решают участвовать, и Роман обращается за помощью к отцу.
Когда брат пойдет на брата, а сын – на отца, столкнувшись лицом к лицу на ринге, смогут ли они победить призраков прошлого?






Источник: WEB-DL 1080p
Качество видео: WEB-DLRip 720p
Формат видео: MKV

Видео: 1280x532 (2,40:1), 25 fps, H264 ~ 3387 kbps avg, 0.199 bit/pixel
Аудио: 48 kHz, Dolby Digital AC3 5.1, 384 kbps iTunes

Раздача от:
Общее
Полное имя : Voin.2015.WEB-DLRip720p_[New-team]_by_AVP_Studio.mkv
Формат : Matroska
Версия формата : Version 4 / Version 2
Размер файла : 2,29 Гбайт
Продолжительность : 1 ч. 27 м.
Общий поток : 3770 Кбит/сек
Название фильма : Voin.2015.WEB-DLRip720p_[New-team]_by_AVP_Studio
Дата кодирования : UTC 2015-11-04 12:02:57
Программа кодирования : mkvmerge v8.4.0 ('A better way to fly') 64bit
Библиотека кодирования : libebml v1.3.1 + libmatroska v1.4.2
DURATION : 01:27:05.952000000
NUMBER_OF_FRAMES : 163311
NUMBER_OF_BYTES : 250845696
_STATISTICS_WRITING_APP : mkvmerge v8.4.0 ('A better way to fly') 64bit
_STATISTICS_WRITING_DATE_UTC : 2015-11-04 12:02:57
_STATISTICS_TAGS : BPS DURATION NUMBER_OF_FRAMES NUMBER_OF_BYTES

Видео
Идентификатор : 1
Формат : AVC
Формат/Информация : Advanced Video Codec
Профиль формата : High@L4.1
Параметр CABAC формата : Да
Параметр ReFrames формата : 8 кадров
Идентификатор кодека : V_MPEG4/ISO/AVC
Продолжительность : 1 ч. 27 м.
Битрейт : 3387 Кбит/сек
Ширина : 1280 пикселей
Высота : 532 пикселя
Соотношение сторон : 2,40:1
Режим частоты кадров : Постоянный
Частота кадров : 25,000 кадров/сек
Цветовое пространство : YUV
Субдискретизация насыщенности : 4:2:0
Битовая глубина : 8 бит
Тип развёртки : Прогрессивная
Бит/(Пиксели*Кадры) : 0.199
Размер потока : 2,01 Гбайт (88%)
Заголовок : Исходник WEB-DL 1080p
Библиотека кодирования : x264 core 148 r2597 e86f3a1
Настройки программы : cabac=1 / ref=8 / deblock=1:-3:-3 / analyse=0x3:0x113 / me=umh / subme=10 / psy=1 / psy_rd=1.00:0.00 / mixed_ref=1 / me_range=32 / chroma_me=1 / trellis=2 / 8x8dct=1 / cqm=0 / deadzone=21,11 / fast_pskip=1 / chroma_qp_offset=-2 / threads=6 / lookahead_threads=1 / sliced_threads=0 / nr=0 / decimate=0 / interlaced=0 / bluray_compat=0 / constrained_intra=0 / bframes=8 / b_pyramid=2 / b_adapt=2 / b_bias=0 / direct=3 / weightb=1 / open_gop=0 / weightp=2 / keyint=250 / keyint_min=25 / scenecut=40 / intra_refresh=0 / rc_lookahead=40 / rc=2pass / mbtree=0 / bitrate=3387 / ratetol=1.0 / qcomp=0.60 / qpmin=0 / qpmax=69 / qpstep=4 / cplxblur=20.0 / qblur=0.5 / vbv_maxrate=50000 / vbv_bufsize=50000 / nal_hrd=none / filler=0 / ip_ratio=1.40 / pb_ratio=1.30 / aq=1:0.80
Default : Да
Forced : Нет

Аудио
Идентификатор : 2
Формат : AC-3
Формат/Информация : Audio Coding 3
Расширение режима : CM (complete main)
Параметр Endianness формата : Big
Идентификатор кодека : A_AC3
Продолжительность : 1 ч. 27 м.
Вид битрейта : Постоянный
Битрейт : 384 Кбит/сек
Каналы : 6 каналов
Расположение каналов : Front: L C R, Side: L R, LFE
Частота : 48,0 КГц
Метод сжатия : С потерями
Размер потока : 239 Мбайт (10%)
Заголовок : Dolby Digital 5,1 384 kbps
Язык : Russian
Default : Да
Forced : Нет





   Похожие торренты   Торрент   Размер 
В этой теме нет новых непрочитанных сообщений. Воин (2015) WEB-DLRip-AVC от New-Team | iTunes

1870 | 101

1.57 ГБ

В этой теме нет новых непрочитанных сообщений. Воин (2015) WEB-DLRip от New-Team | iTunes

554 | 57

746.08 МБ

В этой теме нет новых непрочитанных сообщений. Воин (2015) WEB-DLRip 720p от New-Team

2768 | 389

2.18 ГБ

В этой теме нет новых непрочитанных сообщений. Воин (2015) WEB-DLRip | iTunes

4129 | 397

1.37 ГБ

В этой теме нет новых непрочитанных сообщений. Воин (2015) WEB-DLRip от New-Team

506 | 69

746.08 МБ

В этой теме нет новых непрочитанных сообщений. Воин (2015) WEB-DLRip-AVC от New-Team

2207 | 219

1.46 ГБ

В этой теме нет новых непрочитанных сообщений. Воин (2015) WEB-DLRip-AVC от ExKinoRay | iTunes

1017 | 87

1.28 ГБ




Вы не можете начинать темы
Вы не можете отвечать на сообщения
Вы не можете редактировать свои сообщения
Вы не можете удалять свои сообщения
Вы не можете добавлять вложения

Перейти:  
Для Мосгорсуда, Роскомнадзора и рекламодателей: mosgorsud-torrent[собачка]yandex.ru
 Вход
ppkBB3cker v.2 © 2008-2014 @ PPK
[ Time : 0.032s | 15 Queries | GZIP : On ]

Торрент трекер RUTOR.IN, Не можете зайти на rutor.org? Какой новый адрес рутор? Какое зеркало рутор? Не работает rutor.org и зеркала? Тогда наш торрент специально для вас. Rutor.in неофициальное зеркало rutor. В случае если у Вас заблокирован rutor или вдруг Вы не можете на него зайти, то Вы без труда сможете скачать бесплатно и без рекламы последние новинки кино, игр, сериалов и прочего у нас, на Rutor.in. Не нужно использовать прокси, чтобы зайти на рутор, достаточно воспользоваться нашим ресурсом. Все новые фильмы, игры, сериалы, книги и музыка за 2013 и 2014 годы через торрент бесплатно. Скачивайте фильмы в хорошем качестве, игры для пк, xbox, playstation без регистрации. У нас вы найдете новые Зарубежные сериалы и Русские сериалы 2013, 2014, 2015 годов. Оставайтесь с нами, качайте любимые фильмы, игры, сериалы, книги и музыку.