img image001 image001 image001 image001 image001 image001 image001 image001 image001 image001 image001 image001 image001 image001 image001

Planets Sun Sun Sun
Статистика раздачи
Автор: Nickolas3434 | Размер: 2.22 ГБ | Добавлен: 06 ноя 2015
Раздают: 100    Качают: 21
Скачать торрент
Скачать торрент
Описание торрента

СообщениеДобавлено: 06 ноя 2015 


Информация о фильме
Название: Очи чёрные
Год выхода: 1987
Жанр: Комедия, мелодрама, драма
Режиссер: Никита Михалков
В ролях: Марчелло Мастроянни, Марта Келлер, Елена Сафонова, Пина Чеи, Всеволод Ларионов, Иннокентий Смоктуновский, Роберто Эрлицка, Паоло Барони, Олег Табаков, Юрий Богатырев, Дмитрий Золотухин, Сильвана Мангано, Любовь Руднева, Ольга Вощилина
О фильме: Итальянец Романе на одном из европейских курортов влюбляется в молодую русскую женщину. Герой оставляет благополучную жизнь в Италии и едет в неизвестную Россию в надежде увидеть, а, может быть, и начать совсем другую жизнь…
Русская душа с её вечной загадкой, российские провинциальные нравы, чеховские мотивы в режиссуре Никиты Михалкова приобрели сатирически-фарсовый оттенок.
Страна: СССР, Италия
Продолжительность: 01:52:38
Перевод: Никита Михалков на итальянскую речь.
Файл
Кодек: x264
Качество: DVDRip-AVC
Видео: MPEG-4 AVC, ~ 2370 Кбит/с, 716x572@763х572
Звук: AC3, 6 ch, 448 Кбит/с

raw [info]: 716x572p 16:15 @ 25/1 fps (cfr)
x264 [info]: using SAR=16/15
x264 [info]: using cpu capabilities: MMX2 SSE2Fast SSSE3 SSE4.2 AVX
x264 [info]: profile High, level 4.1
x264 [info]: frame I:1034 Avg QP:16.21 size: 87274
x264 [info]: frame P:40166 Avg QP:19.65 size: 29820
x264 [info]: frame B:127759 Avg QP:21.62 size: 5643
========================================================================================================
Общее
Уникальный идентификатор : 183837333563632886219580555664541548980 (0x8A4DC855E5111FF98EB5093CADA301B4)
Полное имя : D:Очи чёрные_1987-DVDRip-AVC.mkv
Формат : Matroska
Версия формата : Version 2
Размер файла : 2,22 Гбайт
Продолжительность : 1 ч. 52 м.
Общий поток : 2828 Кбит/сек
Дата кодирования : UTC 2015-11-04 19:27:35
Программа кодирования : mkvmerge v5.8.0 ('No Sleep / Pillow') built on Sep 2 2012 15:37:04
Библиотека кодирования : libebml v1.2.3 + libmatroska v1.3.0
Видео
Идентификатор : 1
Формат : AVC
Формат/Информация : Advanced Video Codec
Профиль формата : High@L4.1
Параметр CABAC формата : Да
Параметр ReFrames формата : 13 кадров
Идентификатор кодека : V_MPEG4/ISO/AVC
Продолжительность : 1 ч. 52 м.
Битрейт : 2375 Кбит/сек
Ширина : 716 пикселей
Высота : 572 пикселя
Соотношение сторон : 4:3
Соотношение сторон в оригинале : 4:3
Режим частоты кадров : Постоянный
Частота кадров : 25,000 кадров/сек
Цветовое пространство : YUV
Субдискретизация насыщенности : 4:2:0
Битовая глубина : 8 бит
Тип развёртки : Прогрессивная
Бит/(Пиксели*Кадры) : 0.232
Размер потока : 1,83 Гбайт (82%)
Библиотека кодирования : x264 core 146 r2538 121396c
Настройки программы : cabac=1 / ref=13 / deblock=1:-2:-2 / analyse=0x3:0x133 / me=umh / subme=10 / psy=1 / psy_rd=1.00:0.10 / mixed_ref=1 / me_range=32 / chroma_me=1 / trellis=2 / 8x8dct=1 / cqm=0 / deadzone=21,11 / fast_pskip=0 / chroma_qp_offset=-3 / threads=12 / lookahead_threads=3 / sliced_threads=0 / nr=0 / decimate=0 / interlaced=0 / bluray_compat=0 / constrained_intra=0 / bframes=11 / b_pyramid=2 / b_adapt=2 / b_bias=0 / direct=3 / weightb=1 / open_gop=0 / weightp=2 / keyint=250 / keyint_min=25 / scenecut=40 / intra_refresh=0 / rc=2pass / mbtree=0 / bitrate=2375 / ratetol=1.0 / qcomp=0.63 / qpmin=0 / qpmax=39 / qpstep=4 / cplxblur=20.0 / qblur=0.5 / ip_ratio=1.40 / pb_ratio=1.30 / aq=1:1.00
Язык : English
Default : Да
Forced : Нет
Цветовой диапазон : Limited
Основные цвета : BT.601 PAL
Характеристики трансфера : BT.470 System B, BT.470 System G
Коэффициенты матрицы : BT.601
Аудио
Идентификатор : 2
Формат : AC-3
Формат/Информация : Audio Coding 3
Расширение режима : CM (complete main)
Параметр Endianness формата : Big
Идентификатор кодека : A_AC3
Продолжительность : 1 ч. 52 м.
Вид битрейта : Постоянный
Битрейт : 448 Кбит/сек
Каналы : 6 каналов
Расположение каналов : Front: L C R, Side: L R, LFE
Частота : 48,0 КГц
Метод сжатия : С потерями
Задержка видео : 40 мс.
Размер потока : 361 Мбайт (16%)
Язык : Russian
Default : Да
Forced : Нет

Релиз от:
Автор релиза:



   Похожие торренты   Торрент   Размер 
В этой теме нет новых непрочитанных сообщений. Очи чёрные (1987) DVDRip от SergV

9 | 7

2.17 ГБ

В этой теме нет новых непрочитанных сообщений. Черные ступни / Czarne stopy / Blackfoots (1987) DVDRip | D

26 | 8

1.97 ГБ

В этой теме нет новых непрочитанных сообщений. Моонзунд (1987) DVDRip-AVC от ExKinoRay

312 | 22

2.13 ГБ

В этой теме нет новых непрочитанных сообщений. Разорванный круг (1987) DVDRip-AVC от ExKinoRay

179 | 29

1.33 ГБ

В этой теме нет новых непрочитанных сообщений. Энигма / Aenigma (1987) DVDRip от ExKinoRay

1 | 4

1.37 ГБ

В этой теме нет новых непрочитанных сообщений. Забытая мелодия для флейты (1987) DVDRip-AVC от ExKinoRay

84 | 19

2.86 ГБ

В этой теме нет новых непрочитанных сообщений. Завтра была война (1987) DVDRip-AVC от ExKinoRay

93 | 35

1.56 ГБ




Вы не можете начинать темы
Вы не можете отвечать на сообщения
Вы не можете редактировать свои сообщения
Вы не можете удалять свои сообщения
Вы не можете добавлять вложения

Перейти:  
Для Мосгорсуда, Роскомнадзора и рекламодателей: mosgorsud-torrent[собачка]yandex.ru
 Вход
ppkBB3cker v.2 © 2008-2014 @ PPK
[ Time : 0.048s | 15 Queries | GZIP : Off ]

cron